*********************************************************************************
            Trans-Siberian Orchestra: Christmas Eve and Other Stories
*********************************************************************************


                                         #&                                     
                & %%#####################                                       
               #######&#####@&&########%                                        
             ##*     ###  %#@       &#                                          
                   &##    &#@                                                   
                  ###     @#@         @@%@@        @##                          
                 %##&     ##@  (   ####%@%##########                            
                 ####     ,#@#&  %##          ####@                             
                 ####&     &#    ###   &#    &###                               
                  #####   ##     ######%    ###.          @##&                  
                   .#########################&      &############               
                       &&###&@         @############@  ##%    #####%            
                                       ##&  @######@   ##%      #####           
                                 .&#####@   ###&&###@  ##&       &####          
                             ##################  .##&  ##@        ####@         
                          &      ###&     %#########   ##@  @&&   ####%         
                               &###%###   %####@##&    ###&##    %####          
                              ##%%&##%     #####         ##    &####            
                                 ###        .#####%    %#&  %####               
                                ######&        (#############                   
                                  ###                                           
                                &##@                                            
                               ######                                           
                                &##                                             
                               ##.                                              
                              #*                                                
                            .#                                                  
                                

---------------------------------------------------------------------------------
                               General Information
---------------------------------------------------------------------------------
General
Complete name                            : Trans-Siberian Orchestra 2020 Livestream (5700kbps).mp4
MD5                                      : e51f075a3265e2887a7e22546bb33779
Livestream Date                          : 2020-12-18 20:00:00
Last Available                           : 2020-12-20 23:59:59
Format                                   : MPEG-4
Format profile                           : Base Media
Codec ID                                 : isom
File size                                : 3.52 GiB
Duration                                 : 1h 28mn
Overall bit rate mode                    : Variable
Overall bit rate                         : 5 691 Kbps
Writing application                      : Lavf58.65.100

Video
ID                                       : 1
Format                                   : AVC
Format/Info                              : Advanced Video Codec
Format profile                           : [email protected]
Format settings, CABAC                   : Yes
Format settings, ReFrames                : 4 frames
Codec ID                                 : avc1
Codec ID/Info                            : Advanced Video Coding
Duration                                 : 1h 28mn
Bit rate                                 : 5 504 Kbps
Width                                    : 1 920 pixels
Height                                   : 1 080 pixels
Display aspect ratio                     : 16:9
Frame rate mode                          : Variable
Frame rate                               : 23.976 fps
Minimum frame rate                       : 23.974 fps
Maximum frame rate                       : 23.981 fps
Color space                              : YUV
Chroma subsampling                       : 4:2:0
Bit depth                                : 8 bits
Scan type                                : Progressive
Bits/(Pixel*Frame)                       : 0.111
Stream size                              : 3.40 GiB (97%)
Writing library                          : x264 core 160 r3000M 33f9e14
Encoding settings                        : cabac=1 / ref=3 / deblock=1:0:0 / analyse=0x1:0x111 / me=umh / subme=7 / psy=1 / psy_rd=1.00:0.00 / mixed_ref=1 / me_range=16 / chroma_me=1 / trellis=1 / 8x8dct=0 / cqm=0 / deadzone=21,11 / fast_pskip=1 / chroma_qp_offset=-2 / threads=34 / lookahead_threads=5 / sliced_threads=0 / nr=0 / decimate=1 / interlaced=0 / bluray_compat=0 / constrained_intra=0 / bframes=3 / b_pyramid=2 / b_adapt=1 / b_bias=0 / direct=1 / weightb=1 / open_gop=0 / weightp=2 / keyint=48 / keyint_min=25 / scenecut=0 / intra_refresh=0 / rc_lookahead=40 / rc=crf / mbtree=1 / crf=15.0 / qcomp=0.60 / qpmin=0 / qpmax=69 / qpstep=4 / vbv_maxrate=6000 / vbv_bufsize=11000 / crf_max=0.0 / nal_hrd=none / filler=0 / ip_ratio=1.40 / aq=1:1.00
mdhd_Duration                            : 5311682

Audio
ID                                       : 2
Format                                   : AAC
Format/Info                              : Advanced Audio Codec
Format profile                           : LC
Codec ID                                 : 40
Duration                                 : 1h 28mn
Bit rate mode                            : Variable
Bit rate                                 : 181 Kbps
Maximum bit rate                         : 186 Kbps / 186 Kbps
Channel(s)                               : 2 channels
Channel positions                        : Front: L R
Sampling rate                            : 48.0 KHz
Compression mode                         : Lossy
Stream size                              : 115 MiB (3%)