boheme
================================================================================
*                        Fichiers contenus dans le post                        *
================================================================================

--------------------------------------------------------------------------------
Guernica.2013.FR.XViD.AC3.boheme \
--------------------------------------------------------------------------------
Gernika.jpg
Guernica.2013.FR.XViD.AC3.boheme.avi                                    01:46:07

Duree................: 01:46:07
Taille des fichiers..: 1.38 Go


--------------------------------------------------------------------------------
Guernica.2013.FR.XViD.AC3.boheme \Guernica.2013.FR.XViD.AC3.boheme
--------------------------------------------------------------------------------
Guernica.2013.FR.XViD.AC3.boheme.nfo

Taille des fichiers..: 0 Octets

================================================================================
*Duree totale du post .........: 01:46:07                                      *
*Taille totale du post ........: 1.38 Go                                       *
================================================================================

================================================================================
*                     Guernica.2013.FR.XViD.AC3.boheme.avi                     *
================================================================================
*Format                        : AVI                                           *
*Format/Info                   : Audio Video Interleave                        *
*Format profile                : OpenDML                                       *
*File size                     : 1.38 GiB                                      *
*Duration                      : 1h 46mn                                       *
*Overall bit rate              : 1 856 Kbps                                    *
*Writing application           : Lavf55.18.104                                 *
*=================================== Video ====================================*
*ID                            : 0                                             *
*Format                        : xvid                                          *
*Codec ID                      : xvid                                          *
*Duration                      : 1h 46mn                                       *
*Bit rate                      : 1 523 Kbps                                    *
*Width                         : 720 pixels                                    *
*Height                        : 304 pixels                                    *
*Display aspect ratio          : 2.35:1                                        *
*Frame rate                    : 25.000 fps                                    *
*Bits/(Pixel*Frame)            : 0.278                                         *
*Stream size                   : 1.13 GiB (82%)                                *
*================================== Audio #1 ==================================*
*ID                            : 1                                             *
*Format                        : AC-3                                          *
*Format/Info                   : Audio Coding 3                                *
*Codec ID                      : 00001000-0000-0020-8000-00AA00389B71          *
*Duration                      : 1h 46mn                                       *
*Bit rate                      : 320 Kbps                                      *
*Channel(s)                    : 6 channels                                    *
*Channel positions             : Front: L C R, Back: L R, LFE                  *
*Sampling rate                 : 48.0 KHz                                      *
*Bit depth                     : 16 bits                                       *
*Compression mode              : Lossy                                         *
*Stream size                   : 243 MiB (17%)                                 *
*Interleave, duration          : 32 ms (0.80 video frame)                      *

================================================================================