Disc Title:     Belladonna of Sadness ADC
Disc Size:      41,266,679,012 bytes
Protection:     AACS
BD-Java:        No
BDInfo:         0.5.8

Notes:          

BDINFO HOME:
  Cinema Squid
    http://www.cinemasquid.com/blu-ray/tools/bdinfo

INCLUDES FORUMS REPORT FOR:
  AVS Forum Blu-ray Audio and Video Specifications Thread
    http://www.avsforum.com/avs-vb/showthread.php?t=1155731


********************
PLAYLIST: 00001.MPLS
********************

<--- BEGIN FORUMS PASTE --->
[code]
                                                                                                                Total   Video                                             
Title                                                           Codec   Length  Movie Size      Disc Size       Bitrate Bitrate Main Audio Track                          Secondary Audio Track
-----                                                           ------  ------- --------------  --------------  ------- ------- ------------------                        ---------------------
00001.MPLS                                                      AVC     1:27:18 22,538,944,512  41,266,679,012  34.42   29.67   DTS-HD Master 1.0 1044Kbps (48kHz/24-bit) DTS-HD Master 2.0 1800Kbps (48kHz/24-bit)
[/code]

[code]

DISC INFO:

Disc Title:     Belladonna of Sadness ADC
Disc Size:      41,266,679,012 bytes
Protection:     AACS
BD-Java:        No
BDInfo:         0.5.8

PLAYLIST REPORT:

Name:                   00001.MPLS
Length:                 1:27:18.750 (h:m:s.ms)
Size:                   22,538,944,512 bytes
Total Bitrate:          34.42 Mbps

VIDEO:

Codec                   Bitrate             Description     
-----                   -------             -----------     
MPEG-4 AVC Video        29667 kbps          1080p / 24 fps / 16:9 / High Profile 4.1

AUDIO:

Codec                           Language        Bitrate         Description     
-----                           --------        -------         -----------     
DTS-HD Master Audio             English         1044 kbps       1.0 / 48 kHz / 1044 kbps / 24-bit (DTS Core: 1.0 / 48 kHz / 768 kbps / 24-bit)
DTS-HD Master Audio             English         1800 kbps       2.0 / 48 kHz / 1800 kbps / 24-bit (DTS Core: 2.0 / 48 kHz / 1509 kbps / 24-bit)

SUBTITLES:

Codec                           Language        Bitrate         Description     
-----                           --------        -------         -----------     
Presentation Graphics           English         10.237 kbps                     

FILES:

Name            Time In         Length          Size            Total Bitrate   
----            -------         ------          ----            -------------   
00001.M2TS      0:00:00.000     1:27:18.750     22,538,944,512  34,419          

CHAPTERS:

Number          Time In         Length          Avg Video Rate  Max 1-Sec Rate  Max 1-Sec Time  Max 5-Sec Rate  Max 5-Sec Time  Max 10Sec Rate  Max 10Sec Time  Avg Frame Size  Max Frame Size  Max Frame Time  
------          -------         ------          --------------  --------------  --------------  --------------  --------------  --------------  --------------  --------------  --------------  --------------  
1               0:00:00.000     0:05:05.958     15,327 kbps     43,910 kbps     00:04:20.416    38,369 kbps     00:04:16.583    35,551 kbps     00:04:11.791    79,815 bytes    606,793 bytes   00:04:21.416    
2               0:05:05.958     0:04:06.874     30,262 kbps     48,217 kbps     00:07:12.958    36,108 kbps     00:07:11.625    35,295 kbps     00:06:03.166    157,615 bytes   691,297 bytes   00:06:12.708    
3               0:09:12.833     0:03:29.416     33,218 kbps     43,010 kbps     00:09:58.500    40,113 kbps     00:09:57.416    36,830 kbps     00:09:57.416    173,012 bytes   505,951 bytes   00:09:32.541    
4               0:12:42.250     0:06:58.958     32,544 kbps     45,015 kbps     00:16:07.041    37,266 kbps     00:16:07.333    36,299 kbps     00:16:07.291    169,501 bytes   613,841 bytes   00:15:49.833    
5               0:19:41.208     0:08:46.583     30,472 kbps     50,739 kbps     00:21:07.541    38,964 kbps     00:21:07.791    37,344 kbps     00:27:19.791    158,711 bytes   757,631 bytes   00:22:55.750    
6               0:28:27.791     0:07:43.375     33,072 kbps     44,320 kbps     00:33:16.958    34,843 kbps     00:33:16.958    34,434 kbps     00:30:33.208    172,252 bytes   518,747 bytes   00:30:28.250    
7               0:36:11.166     0:13:00.583     30,613 kbps     47,496 kbps     00:39:27.416    38,435 kbps     00:39:27.375    37,160 kbps     00:48:34.333    159,443 bytes   569,915 bytes   00:48:37.500    
8               0:49:11.750     0:04:17.500     31,134 kbps     40,381 kbps     00:50:14.083    36,199 kbps     00:49:15.500    36,065 kbps     00:49:15.333    162,154 bytes   523,756 bytes   00:49:51.625    
9               0:53:29.250     0:09:48.208     27,444 kbps     50,007 kbps     01:02:35.125    40,368 kbps     01:02:34.791    37,534 kbps     01:02:34.625    142,935 bytes   638,998 bytes   00:57:02.375    
10              1:03:17.458     0:09:46.166     27,192 kbps     49,820 kbps     01:12:46.666    39,254 kbps     01:06:00.916    36,795 kbps     01:07:41.791    141,624 bytes   812,515 bytes   01:12:47.291    
11              1:13:03.625     0:06:38.125     32,185 kbps     46,235 kbps     01:13:07.375    38,841 kbps     01:19:14.125    36,847 kbps     01:19:09.500    167,628 bytes   614,919 bytes   01:13:07.500    
12              1:19:41.750     0:07:37.000     31,699 kbps     44,900 kbps     01:26:02.375    37,009 kbps     01:23:08.375    35,573 kbps     01:23:08.375    165,114 bytes   572,090 bytes   01:23:08.916    

STREAM DIAGNOSTICS:

File            PID             Type            Codec           Language                Seconds                 Bitrate                 Bytes           Packets         
----            ---             ----            -----           --------                --------------          --------------          -------------   -----           
00001.M2TS      4113 (0x1011)   0x1B            AVC                                     5238.667                29,667                  19,427,103,116  105,655,794     
00001.M2TS      4352 (0x1100)   0x86            DTS-HD MA       eng (English)           5238.667                1,044                   683,737,796     4,259,368       
00001.M2TS      4353 (0x1101)   0x86            DTS-HD MA       eng (English)           5238.667                1,800                   1,178,888,432   7,259,272       
00001.M2TS      4608 (0x1200)   0x90            PGS             eng (English)           5238.667                10                      6,703,612       39,968          

[/code]
<---- END FORUMS PASTE ---->

QUICK SUMMARY:

Disc Title: Belladonna of Sadness ADC
Disc Size: 41,266,679,012 bytes
Protection: AACS
BD-Java: No
Playlist: 00001.MPLS
Size: 22,538,944,512 bytes
Length: 1:27:18.750
Total Bitrate: 34.42 Mbps
Video: MPEG-4 AVC Video / 29667 kbps / 1080p / 24 fps / 16:9 / High Profile 4.1
Audio: English / DTS-HD Master Audio / 1.0 / 48 kHz / 1044 kbps / 24-bit (DTS Core: 1.0 / 48 kHz / 768 kbps / 24-bit)
Audio: English / DTS-HD Master Audio / 2.0 / 48 kHz / 1800 kbps / 24-bit (DTS Core: 2.0 / 48 kHz / 1509 kbps / 24-bit)
Subtitle: English / 10.237 kbps


********************
PLAYLIST: 00010.MPLS
********************

<--- BEGIN FORUMS PASTE --->
[code]
                                                                                                                Total   Video                                             
Title                                                           Codec   Length  Movie Size      Disc Size       Bitrate Bitrate Main Audio Track                          Secondary Audio Track
-----                                                           ------  ------- --------------  --------------  ------- ------- ------------------                        ---------------------
00010.MPLS                                                      AVC     0:27:19 6,925,516,800   41,266,679,012  33.78   29.95   LPCM 2.0 2304Kbps (48kHz/24-bit)          
[/code]

[code]

DISC INFO:

Disc Title:     Belladonna of Sadness ADC
Disc Size:      41,266,679,012 bytes
Protection:     AACS
BD-Java:        No
BDInfo:         0.5.8

PLAYLIST REPORT:

Name:                   00010.MPLS
Length:                 0:27:19.958 (h:m:s.ms)
Size:                   6,925,516,800 bytes
Total Bitrate:          33.78 Mbps

VIDEO:

Codec                   Bitrate             Description     
-----                   -------             -----------     
MPEG-4 AVC Video        29951 kbps          1080p / 24 fps / 16:9 / High Profile 4.1

AUDIO:

Codec                           Language        Bitrate         Description     
-----                           --------        -------         -----------     
LPCM Audio                      English         2304 kbps       2.0 / 48 kHz / 2304 kbps / 24-bit

FILES:

Name            Time In         Length          Size            Total Bitrate   
----            -------         ------          ----            -------------   
00010.M2TS      0:00:00.000     0:27:19.958     6,925,516,800   33,784          

CHAPTERS:

Number          Time In         Length          Avg Video Rate  Max 1-Sec Rate  Max 1-Sec Time  Max 5-Sec Rate  Max 5-Sec Time  Max 10Sec Rate  Max 10Sec Time  Avg Frame Size  Max Frame Size  Max Frame Time  
------          -------         ------          --------------  --------------  --------------  --------------  --------------  --------------  --------------  --------------  --------------  --------------  
1               0:00:00.000     0:27:19.958     29,951 kbps     44,250 kbps     00:00:00.083    37,665 kbps     00:19:08.708    36,608 kbps     00:19:04.000    155,995 bytes   589,280 bytes   00:00:07.500    

STREAM DIAGNOSTICS:

File            PID             Type            Codec           Language                Seconds                 Bitrate                 Bytes           Packets         
----            ---             ----            -----           --------                --------------          --------------          -------------   -----           
00010.M2TS      4113 (0x1011)   0x1B            AVC                                     1639.875                29,952                  6,139,791,314   33,391,401      
00010.M2TS      4352 (0x1100)   0x80            LPCM            eng (English)           1639.875                2,310                   473,608,896     2,623,872       

[/code]
<---- END FORUMS PASTE ---->

QUICK SUMMARY:

Disc Title: Belladonna of Sadness ADC
Disc Size: 41,266,679,012 bytes
Protection: AACS
BD-Java: No
Playlist: 00010.MPLS
Size: 6,925,516,800 bytes
Length: 0:27:19.958
Total Bitrate: 33.78 Mbps
Video: MPEG-4 AVC Video / 29951 kbps / 1080p / 24 fps / 16:9 / High Profile 4.1
Audio: English / LPCM Audio / 2.0 / 48 kHz / 2304 kbps / 24-bit


********************
PLAYLIST: 00008.MPLS
********************

<--- BEGIN FORUMS PASTE --->
[code]
                                                                                                                Total   Video                                             
Title                                                           Codec   Length  Movie Size      Disc Size       Bitrate Bitrate Main Audio Track                          Secondary Audio Track
-----                                                           ------  ------- --------------  --------------  ------- ------- ------------------                        ---------------------
00008.MPLS                                                      AVC     0:23:20 5,912,395,776   41,266,679,012  33.78   29.95   LPCM 2.0 2304Kbps (48kHz/24-bit)          
[/code]

[code]

DISC INFO:

Disc Title:     Belladonna of Sadness ADC
Disc Size:      41,266,679,012 bytes
Protection:     AACS
BD-Java:        No
BDInfo:         0.5.8

PLAYLIST REPORT:

Name:                   00008.MPLS
Length:                 0:23:20.083 (h:m:s.ms)
Size:                   5,912,395,776 bytes
Total Bitrate:          33.78 Mbps

VIDEO:

Codec                   Bitrate             Description     
-----                   -------             -----------     
MPEG-4 AVC Video        29949 kbps          1080p / 24 fps / 16:9 / High Profile 4.1

AUDIO:

Codec                           Language        Bitrate         Description     
-----                           --------        -------         -----------     
LPCM Audio                      English         2304 kbps       2.0 / 48 kHz / 2304 kbps / 24-bit

FILES:

Name            Time In         Length          Size            Total Bitrate   
----            -------         ------          ----            -------------   
00008.M2TS      0:00:00.000     0:23:20.083     5,912,395,776   33,783          

CHAPTERS:

Number          Time In         Length          Avg Video Rate  Max 1-Sec Rate  Max 1-Sec Time  Max 5-Sec Rate  Max 5-Sec Time  Max 10Sec Rate  Max 10Sec Time  Avg Frame Size  Max Frame Size  Max Frame Time  
------          -------         ------          --------------  --------------  --------------  --------------  --------------  --------------  --------------  --------------  --------------  --------------  
1               0:00:00.000     0:23:20.083     29,949 kbps     46,740 kbps     00:19:35.750    37,990 kbps     00:00:14.083    35,660 kbps     00:00:10.166    155,986 bytes   592,391 bytes   00:00:07.500    

STREAM DIAGNOSTICS:

File            PID             Type            Codec           Language                Seconds                 Bitrate                 Bytes           Packets         
----            ---             ----            -----           --------                --------------          --------------          -------------   -----           
00008.M2TS      4113 (0x1011)   0x1B            AVC                                     1399.917                29,953                  5,241,434,706   28,505,732      
00008.M2TS      4352 (0x1100)   0x80            LPCM            eng (English)           1399.917                2,311                   404,332,996     2,240,072       

[/code]
<---- END FORUMS PASTE ---->

QUICK SUMMARY:

Disc Title: Belladonna of Sadness ADC
Disc Size: 41,266,679,012 bytes
Protection: AACS
BD-Java: No
Playlist: 00008.MPLS
Size: 5,912,395,776 bytes
Length: 0:23:20.083
Total Bitrate: 33.78 Mbps
Video: MPEG-4 AVC Video / 29949 kbps / 1080p / 24 fps / 16:9 / High Profile 4.1
Audio: English / LPCM Audio / 2.0 / 48 kHz / 2304 kbps / 24-bit


********************
PLAYLIST: 00009.MPLS
********************

<--- BEGIN FORUMS PASTE --->
[code]
                                                                                                                Total   Video                                             
Title                                                           Codec   Length  Movie Size      Disc Size       Bitrate Bitrate Main Audio Track                          Secondary Audio Track
-----                                                           ------  ------- --------------  --------------  ------- ------- ------------------                        ---------------------
00009.MPLS                                                      AVC     0:16:51 4,266,786,816   41,266,679,012  33.76   29.92   LPCM 2.0 2304Kbps (48kHz/24-bit)          
[/code]

[code]

DISC INFO:

Disc Title:     Belladonna of Sadness ADC
Disc Size:      41,266,679,012 bytes
Protection:     AACS
BD-Java:        No
BDInfo:         0.5.8

PLAYLIST REPORT:

Name:                   00009.MPLS
Length:                 0:16:51.166 (h:m:s.ms)
Size:                   4,266,786,816 bytes
Total Bitrate:          33.76 Mbps

VIDEO:

Codec                   Bitrate             Description     
-----                   -------             -----------     
MPEG-4 AVC Video        29924 kbps          1080p / 24 fps / 16:9 / High Profile 4.1

AUDIO:

Codec                           Language        Bitrate         Description     
-----                           --------        -------         -----------     
LPCM Audio                      English         2304 kbps       2.0 / 48 kHz / 2304 kbps / 24-bit

FILES:

Name            Time In         Length          Size            Total Bitrate   
----            -------         ------          ----            -------------   
00009.M2TS      0:00:00.000     0:16:51.166     4,266,786,816   33,757          

CHAPTERS:

Number          Time In         Length          Avg Video Rate  Max 1-Sec Rate  Max 1-Sec Time  Max 5-Sec Rate  Max 5-Sec Time  Max 10Sec Rate  Max 10Sec Time  Avg Frame Size  Max Frame Size  Max Frame Time  
------          -------         ------          --------------  --------------  --------------  --------------  --------------  --------------  --------------  --------------  --------------  --------------  
1               0:00:00.000     0:16:51.166     29,924 kbps     44,535 kbps     00:00:00.083    37,695 kbps     00:01:22.333    36,400 kbps     00:01:17.291    155,856 bytes   583,416 bytes   00:00:07.500    

STREAM DIAGNOSTICS:

File            PID             Type            Codec           Language                Seconds                 Bitrate                 Bytes           Packets         
----            ---             ----            -----           --------                --------------          --------------          -------------   -----           
00009.M2TS      4113 (0x1011)   0x1B            AVC                                     1011.042                29,928                  3,782,313,722   20,570,198      
00009.M2TS      4352 (0x1100)   0x80            LPCM            eng (English)           1011.042                2,311                   292,014,344     1,617,808       

[/code]
<---- END FORUMS PASTE ---->

QUICK SUMMARY:

Disc Title: Belladonna of Sadness ADC
Disc Size: 41,266,679,012 bytes
Protection: AACS
BD-Java: No
Playlist: 00009.MPLS
Size: 4,266,786,816 bytes
Length: 0:16:51.166
Total Bitrate: 33.76 Mbps
Video: MPEG-4 AVC Video / 29924 kbps / 1080p / 24 fps / 16:9 / High Profile 4.1
Audio: English / LPCM Audio / 2.0 / 48 kHz / 2304 kbps / 24-bit


********************
PLAYLIST: 00012.MPLS
********************

<--- BEGIN FORUMS PASTE --->
[code]
                                                                                                                Total   Video                                             
Title                                                           Codec   Length  Movie Size      Disc Size       Bitrate Bitrate Main Audio Track                          Secondary Audio Track
-----                                                           ------  ------- --------------  --------------  ------- ------- ------------------                        ---------------------
00012.MPLS                                                      AVC     0:02:58 665,124,864     41,266,679,012  29.88   26.77   LPCM 2.0 1536Kbps (48kHz/16-bit)          
[/code]

[code]

DISC INFO:

Disc Title:     Belladonna of Sadness ADC
Disc Size:      41,266,679,012 bytes
Protection:     AACS
BD-Java:        No
BDInfo:         0.5.8

PLAYLIST REPORT:

Name:                   00012.MPLS
Length:                 0:02:58.083 (h:m:s.ms)
Size:                   665,124,864 bytes
Total Bitrate:          29.88 Mbps

VIDEO:

Codec                   Bitrate             Description     
-----                   -------             -----------     
MPEG-4 AVC Video        26766 kbps          1080p / 24 fps / 16:9 / High Profile 4.1

AUDIO:

Codec                           Language        Bitrate         Description     
-----                           --------        -------         -----------     
LPCM Audio                      English         1536 kbps       2.0 / 48 kHz / 1536 kbps / 16-bit

SUBTITLES:

Codec                           Language        Bitrate         Description     
-----                           --------        -------         -----------     
Presentation Graphics           English         26.488 kbps                     

FILES:

Name            Time In         Length          Size            Total Bitrate   
----            -------         ------          ----            -------------   
00012.M2TS      0:00:00.000     0:02:58.083     665,124,864     29,879          

CHAPTERS:

Number          Time In         Length          Avg Video Rate  Max 1-Sec Rate  Max 1-Sec Time  Max 5-Sec Rate  Max 5-Sec Time  Max 10Sec Rate  Max 10Sec Time  Avg Frame Size  Max Frame Size  Max Frame Time  
------          -------         ------          --------------  --------------  --------------  --------------  --------------  --------------  --------------  --------------  --------------  --------------  
1               0:00:00.000     0:02:58.083     26,766 kbps     58,279 kbps     00:02:08.916    39,758 kbps     00:00:19.708    37,003 kbps     00:00:17.749    139,404 bytes   826,903 bytes   00:02:09.458    

STREAM DIAGNOSTICS:

File            PID             Type            Codec           Language                Seconds                 Bitrate                 Bytes           Packets         
----            ---             ----            -----           --------                --------------          --------------          -------------   -----           
00012.M2TS      4113 (0x1011)   0x1B            AVC                                     177.917                 26,791                  595,811,895     3,240,641       
00012.M2TS      4352 (0x1100)   0x80            LPCM            eng (English)           177.917                 1,544                   34,327,076      213,654         
00012.M2TS      4608 (0x1200)   0x90            PGS             eng (English)           177.917                 27                      589,636         3,475           

[/code]
<---- END FORUMS PASTE ---->

QUICK SUMMARY:

Disc Title: Belladonna of Sadness ADC
Disc Size: 41,266,679,012 bytes
Protection: AACS
BD-Java: No
Playlist: 00012.MPLS
Size: 665,124,864 bytes
Length: 0:02:58.083
Total Bitrate: 29.88 Mbps
Video: MPEG-4 AVC Video / 26766 kbps / 1080p / 24 fps / 16:9 / High Profile 4.1
Audio: English / LPCM Audio / 2.0 / 48 kHz / 1536 kbps / 16-bit
Subtitle: English / 26.488 kbps


********************
PLAYLIST: 00005.MPLS
********************

<--- BEGIN FORUMS PASTE --->
[code]
                                                                                                                Total   Video                                             
Title                                                           Codec   Length  Movie Size      Disc Size       Bitrate Bitrate Main Audio Track                          Secondary Audio Track
-----                                                           ------  ------- --------------  --------------  ------- ------- ------------------                        ---------------------
00005.MPLS                                                      AVC     0:02:35 533,987,328     41,266,679,012  27.55   24.56   LPCM 2.0 1536Kbps (48kHz/16-bit)          
[/code]

[code]

DISC INFO:

Disc Title:     Belladonna of Sadness ADC
Disc Size:      41,266,679,012 bytes
Protection:     AACS
BD-Java:        No
BDInfo:         0.5.8

PLAYLIST REPORT:

Name:                   00005.MPLS
Length:                 0:02:35.083 (h:m:s.ms)
Size:                   533,987,328 bytes
Total Bitrate:          27.55 Mbps

VIDEO:

Codec                   Bitrate             Description     
-----                   -------             -----------     
MPEG-4 AVC Video        24557 kbps          1080p / 24 fps / 16:9 / High Profile 4.1

AUDIO:

Codec                           Language        Bitrate         Description     
-----                           --------        -------         -----------     
LPCM Audio                      English         1536 kbps       2.0 / 48 kHz / 1536 kbps / 16-bit

FILES:

Name            Time In         Length          Size            Total Bitrate   
----            -------         ------          ----            -------------   
00005.M2TS      0:00:00.000     0:02:35.083     533,987,328     27,546          

CHAPTERS:

Number          Time In         Length          Avg Video Rate  Max 1-Sec Rate  Max 1-Sec Time  Max 5-Sec Rate  Max 5-Sec Time  Max 10Sec Rate  Max 10Sec Time  Avg Frame Size  Max Frame Size  Max Frame Time  
------          -------         ------          --------------  --------------  --------------  --------------  --------------  --------------  --------------  --------------  --------------  --------------  
1               0:00:00.000     0:02:35.083     24,557 kbps     58,346 kbps     00:00:34.458    35,989 kbps     00:01:12.625    34,781 kbps     00:01:12.624    127,904 bytes   713,147 bytes   00:00:35.000    

STREAM DIAGNOSTICS:

File            PID             Type            Codec           Language                Seconds                 Bitrate                 Bytes           Packets         
----            ---             ----            -----           --------                --------------          --------------          -------------   -----           
00005.M2TS      4113 (0x1011)   0x1B            AVC                                     155.000                 24,571                  476,057,094     2,589,399       
00005.M2TS      4352 (0x1100)   0x80            LPCM            eng (English)           155.000                 1,543                   29,892,676      186,054         

[/code]
<---- END FORUMS PASTE ---->

QUICK SUMMARY:

Disc Title: Belladonna of Sadness ADC
Disc Size: 41,266,679,012 bytes
Protection: AACS
BD-Java: No
Playlist: 00005.MPLS
Size: 533,987,328 bytes
Length: 0:02:35.083
Total Bitrate: 27.55 Mbps
Video: MPEG-4 AVC Video / 24557 kbps / 1080p / 24 fps / 16:9 / High Profile 4.1
Audio: English / LPCM Audio / 2.0 / 48 kHz / 1536 kbps / 16-bit


********************
PLAYLIST: 00004.MPLS
********************

<--- BEGIN FORUMS PASTE --->
[code]
                                                                                                                Total   Video                                             
Title                                                           Codec   Length  Movie Size      Disc Size       Bitrate Bitrate Main Audio Track                          Secondary Audio Track
-----                                                           ------  ------- --------------  --------------  ------- ------- ------------------                        ---------------------
00004.MPLS                                                      AVC     0:01:30 294,715,392     41,266,679,012  25.92   22.41   LPCM 2.0 2304Kbps (48kHz/24-bit)          
[/code]

[code]

DISC INFO:

Disc Title:     Belladonna of Sadness ADC
Disc Size:      41,266,679,012 bytes
Protection:     AACS
BD-Java:        No
BDInfo:         0.5.8

PLAYLIST REPORT:

Name:                   00004.MPLS
Length:                 0:01:30.958 (h:m:s.ms)
Size:                   294,715,392 bytes
Total Bitrate:          25.92 Mbps

VIDEO:

Codec                   Bitrate             Description     
-----                   -------             -----------     
MPEG-4 AVC Video        22409 kbps          1080p / 24 fps / 16:9 / High Profile 4.1

AUDIO:

Codec                           Language        Bitrate         Description     
-----                           --------        -------         -----------     
LPCM Audio                      English         2304 kbps       2.0 / 48 kHz / 2304 kbps / 24-bit

FILES:

Name            Time In         Length          Size            Total Bitrate   
----            -------         ------          ----            -------------   
00004.M2TS      0:00:00.000     0:01:30.958     294,715,392     25,921          

CHAPTERS:

Number          Time In         Length          Avg Video Rate  Max 1-Sec Rate  Max 1-Sec Time  Max 5-Sec Rate  Max 5-Sec Time  Max 10Sec Rate  Max 10Sec Time  Avg Frame Size  Max Frame Size  Max Frame Time  
------          -------         ------          --------------  --------------  --------------  --------------  --------------  --------------  --------------  --------------  --------------  --------------  
1               0:00:00.000     0:01:30.958     22,409 kbps     62,082 kbps     00:00:03.541    36,859 kbps     00:00:49.000    35,026 kbps     00:00:48.999    116,713 bytes   789,920 bytes   00:00:04.083    

STREAM DIAGNOSTICS:

File            PID             Type            Codec           Language                Seconds                 Bitrate                 Bytes           Packets         
----            ---             ----            -----           --------                --------------          --------------          -------------   -----           
00004.M2TS      4113 (0x1011)   0x1B            AVC                                     90.792                  22,450                  254,785,064     1,385,938       
00004.M2TS      4352 (0x1100)   0x80            LPCM            eng (English)           90.792                  2,314                   26,257,696      145,472         

[/code]
<---- END FORUMS PASTE ---->

QUICK SUMMARY:

Disc Title: Belladonna of Sadness ADC
Disc Size: 41,266,679,012 bytes
Protection: AACS
BD-Java: No
Playlist: 00004.MPLS
Size: 294,715,392 bytes
Length: 0:01:30.958
Total Bitrate: 25.92 Mbps
Video: MPEG-4 AVC Video / 22409 kbps / 1080p / 24 fps / 16:9 / High Profile 4.1
Audio: English / LPCM Audio / 2.0 / 48 kHz / 2304 kbps / 24-bit


********************
PLAYLIST: 00000.MPLS
********************

<--- BEGIN FORUMS PASTE --->
[code]
                                                                                                                Total   Video                                             
Title                                                           Codec   Length  Movie Size      Disc Size       Bitrate Bitrate Main Audio Track                          Secondary Audio Track
-----                                                           ------  ------- --------------  --------------  ------- ------- ------------------                        ---------------------
00000.MPLS                                                      AVC     0:00:32 123,863,040     41,266,679,012  30.97   27.81   LPCM 2.0 1536Kbps (48kHz/16-bit)          
[/code]

[code]

DISC INFO:

Disc Title:     Belladonna of Sadness ADC
Disc Size:      41,266,679,012 bytes
Protection:     AACS
BD-Java:        No
BDInfo:         0.5.8

PLAYLIST REPORT:

Name:                   00000.MPLS
Length:                 0:00:32.000 (h:m:s.ms)
Size:                   123,863,040 bytes
Total Bitrate:          30.97 Mbps

VIDEO:

Codec                   Bitrate             Description     
-----                   -------             -----------     
MPEG-4 AVC Video        27806 kbps          1080p / 24 fps / 16:9 / High Profile 4.1

AUDIO:

Codec                           Language        Bitrate         Description     
-----                           --------        -------         -----------     
LPCM Audio                      English         1536 kbps       2.0 / 48 kHz / 1536 kbps / 16-bit

FILES:

Name            Time In         Length          Size            Total Bitrate   
----            -------         ------          ----            -------------   
00000.M2TS      0:00:00.000     0:00:32.000     123,863,040     30,966          

CHAPTERS:

Number          Time In         Length          Avg Video Rate  Max 1-Sec Rate  Max 1-Sec Time  Max 5-Sec Rate  Max 5-Sec Time  Max 10Sec Rate  Max 10Sec Time  Avg Frame Size  Max Frame Size  Max Frame Time  
------          -------         ------          --------------  --------------  --------------  --------------  --------------  --------------  --------------  --------------  --------------  --------------  
1               0:00:00.000     0:00:32.000     27,806 kbps     53,391 kbps     00:00:03.458    39,463 kbps     00:00:02.958    36,399 kbps     00:00:02.958    144,824 bytes   676,732 bytes   00:00:04.000    

STREAM DIAGNOSTICS:

File            PID             Type            Codec           Language                Seconds                 Bitrate                 Bytes           Packets         
----            ---             ----            -----           --------                --------------          --------------          -------------   -----           
00000.M2TS      4113 (0x1011)   0x1B            AVC                                     31.875                  27,915                  111,224,878     604,908         
00000.M2TS      4352 (0x1100)   0x80            LPCM            eng (English)           31.875                  1,547                   6,161,888       38,352          

[/code]
<---- END FORUMS PASTE ---->

QUICK SUMMARY:

Disc Title: Belladonna of Sadness ADC
Disc Size: 41,266,679,012 bytes
Protection: AACS
BD-Java: No
Playlist: 00000.MPLS
Size: 123,863,040 bytes
Length: 0:00:32.000
Total Bitrate: 30.97 Mbps
Video: MPEG-4 AVC Video / 27806 kbps / 1080p / 24 fps / 16:9 / High Profile 4.1
Audio: English / LPCM Audio / 2.0 / 48 kHz / 1536 kbps / 16-bit