07/08/2017

================================================================================
http://www.allocine.fr/film/fichefilm_gen_cfilm=247982.html
*                                                                              *

Date de sortie Prochainement (1h 31min)
De Jason Bourque
Avec Sean Bean, Patrick Sabongui, Mary McCormack plus
Genre Thriller
Nationalites canadien, americain
*                                                                              *
Un pilote de drone de haut niveau partage sa vie entre ses missions et sa vie de 
famille en banlieue, jusqu'a ce qu'une fuite fasse de lui la cible d'un homme d'
affaires pakistanais. 

================================================================================
*                        Fichiers contenus dans le post                        *
================================================================================

--------------------------------------------------------------------------------
Drone.2017.FR.BDRip.XviD.boheme \
--------------------------------------------------------------------------------
Drone.2017.FR.BDRip.XviD.boheme.avi                                     01:29:34

Duree................: 01:29:34
Taille des fichiers..: 700.73 Mo


--------------------------------------------------------------------------------
Drone.2017.FR.BDRip.XviD.boheme \Drone.2017.FR.BDRip.XviD.boheme
--------------------------------------------------------------------------------
Drone.2017.FR.BDRip.XviD.boheme.nfo

Taille des fichiers..: 0 Octets

================================================================================
*Duree totale du post .........: 01:29:34                                      *
*Taille totale du post ........: 700.73 Mo                                     *
================================================================================

================================================================================
*                     Drone.2017.FR.BDRip.XviD.boheme.avi                      *
================================================================================
*Format                        : AVI                                           *
*Format/Info                   : Audio Video Interleave                        *
*File size                     : 701 MiB                                       *
*Duration                      : 1h 29mn                                       *
*Overall bit rate              : 1 094 Kbps                                    *
*=================================== Video ====================================*
*ID                            : 0                                             *
*Format                        : MPEG-4 Visual                                 *
*Format profile                : Advanced [email protected]                            *
*Format settings, BVOP         : 1                                             *
*Format settings, QPel         : No                                            *
*Format settings, GMC          : No warppoints                                 *
*Format settings, Matrix       : Default (H.263)                               *
*Codec ID                      : XVID                                          *
*Codec ID/Hint                 : XviD                                          *
*Duration                      : 1h 29mn                                       *
*Bit rate                      : 953 Kbps                                      *
*Width                         : 720 pixels                                    *
*Height                        : 304 pixels                                    *
*Display aspect ratio          : 2.35:1                                        *
*Frame rate                    : 23.976 fps                                    *
*Color space                   : YUV                                           *
*Chroma subsampling            : 4:2:0                                         *
*Bit depth                     : 8 bits                                        *
*Scan type                     : Progressive                                   *
*Compression mode              : Lossy                                         *
*Bits/(Pixel*Frame)            : 0.182                                         *
*Stream size                   : 611 MiB (87%)                                 *
*Writing library               : XviD 67                                       *
*================================== Audio #1 ==================================*
*ID                            : 1                                             *
*Format                        : MPEG Audio                                    *
*Format version                : Version 1                                     *
*Format profile                : Layer 3                                       *
*Mode                          : Joint stereo                                  *
*Mode extension                : MS Stereo                                     *
*Codec ID                      : 55                                            *
*Codec ID/Hint                 : MP3                                           *
*Duration                      : 1h 29mn                                       *
*Bit rate mode                 : Constant                                      *
*Bit rate                      : 128 Kbps                                      *
*Channel(s)                    : 2 channels                                    *
*Sampling rate                 : 48.0 KHz                                      *
*Compression mode              : Lossy                                         *
*Stream size                   : 82.0 MiB (12%)                                *
*Alignment                     : Aligned on interleaves                        *
*Interleave, duration          : 24 ms (0.58 video frame)                      *
*Interleave, preload duration  : 192 ms                                        *
*Title                         : m                                             *
*Writing library               : LAME3.99r                                     *

================================================================================         *