08/08/2017

================================================================================
http://www.allocine.fr/film/fichefilm_gen_cfilm=236674.html
*                                                                              *

Date de sortie 8 mars 2017 (2h 09min)
De Peter Berg
Avec Mark Wahlberg, Kevin Bacon, John Goodman plus
Genres Drame, Thriller
Nationalite americain
*                                                                              *
Interdit aux moins de 12 ans
Alors que la ville de Boston est sous le choc de multiples explosions, le sergent 
de police Tommy Saunders rejoint les enqueteurs sur le terrain dans une course 
contre la montre pour traquer et arreter les auteurs avant qu'ils ne frappent a 
nouveau. Croisant les parcours de l'agent special Richard Deslauriers, du 
commissaire Ed Davis, du sergent Jeffrey Pugliese et de l'infirmiere Carol 
Saunders, ce recit sans concession evoque la chasse a l'homme la plus complexe 
jamais mise en oeuvre par la police americaine รป et rend un vibrant hommage aux 
heros du quotidien. 

================================================================================
*                        Fichiers contenus dans le post                        *
================================================================================

--------------------------------------------------------------------------------
Patriots.Day.2016.FR.BDRip.XviD.boheme \
--------------------------------------------------------------------------------
Patriots.Day.2016.FR.BDRip.XviD.boheme.avi                              02:13:08

Duree................: 02:13:08
Taille des fichiers..: 1.36 Go


--------------------------------------------------------------------------------
Patriots.Day.2016.FR.BDRip.XviD.boheme \Patriots.Day.2016.FR.BDRip.XviD.boheme
--------------------------------------------------------------------------------
Patriots.Day.2016.FR.BDRip.XviD.boheme.nfo

Taille des fichiers..: 0 Octets

================================================================================
*Duree totale du post .........: 02:13:08                                      *
*Taille totale du post ........: 1.36 Go                                       *
================================================================================

================================================================================
*                  Patriots.Day.2016.FR.BDRip.XviD.boheme.avi                  *
================================================================================
*Format                        : AVI                                           *
*Format/Info                   : Audio Video Interleave                        *
*Format profile                : OpenDML                                       *
*Format settings               : rec                                           *
*File size                     : 1.36 GiB                                      *
*Duration                      : 2h 13mn                                       *
*Overall bit rate              : 1 466 Kbps                                    *
*Writing application           : AVI-Mux GUI 1.17.8, Aug 30 2008  12:36:58     *
*=================================== Video ====================================*
*ID                            : 0                                             *
*Format                        : MPEG-4 Visual                                 *
*Format profile                : Advanced [email protected]                            *
*Format settings, BVOP         : 1                                             *
*Format settings, QPel         : No                                            *
*Format settings, GMC          : No warppoints                                 *
*Format settings, Matrix       : Default (H.263)                               *
*Muxing mode                   : Packed bitstream                              *
*Codec ID                      : XVID                                          *
*Codec ID/Hint                 : XviD                                          *
*Duration                      : 2h 13mn                                       *
*Bit rate                      : 1 334 Kbps                                    *
*Width                         : 720 pixels                                    *
*Height                        : 304 pixels                                    *
*Display aspect ratio          : 2.35:1                                        *
*Frame rate                    : 23.976 fps                                    *
*Color space                   : YUV                                           *
*Chroma subsampling            : 4:2:0                                         *
*Bit depth                     : 8 bits                                        *
*Scan type                     : Progressive                                   *
*Compression mode              : Lossy                                         *
*Bits/(Pixel*Frame)            : 0.254                                         *
*Stream size                   : 1.24 GiB (91%)                                *
*Writing library               : XviD 1.2.1 (UTC 2008-12-04)                   *
*================================== Audio #1 ==================================*
*ID                            : 1                                             *
*Format                        : MPEG Audio                                    *
*Format version                : Version 1                                     *
*Format profile                : Layer 3                                       *
*Mode                          : Joint stereo                                  *
*Mode extension                : MS Stereo                                     *
*Codec ID                      : 55                                            *
*Codec ID/Hint                 : MP3                                           *
*Duration                      : 2h 13mn                                       *
*Bit rate mode                 : Constant                                      *
*Bit rate                      : 128 Kbps                                      *
*Channel(s)                    : 2 channels                                    *
*Sampling rate                 : 48.0 KHz                                      *
*Compression mode              : Lossy                                         *
*Stream size                   : 122 MiB (9%)                                  *
*Alignment                     : Aligned on interleaves                        *
*Interleave, duration          : 607 ms (14.56 video frames)                   *
*Interleave, preload duration  : 216 ms                                        *
*Title                         : m                                             *
*Writing library               : LAME3.99r                                     *

================================================================================