12/08/2017

================================================================================
http://www.allocine.fr/film/fichefilm_gen_cfilm=209893.html
*                                                                              *

Date de sortie 8 fevrier 2017 (1h 58min)
De James Foley
Avec Dakota Johnson, Jamie Dornan, Bella Heathcote plus
Genres Romance, Drame, Erotique
Nationalite americain
*                                                                              *
Interdit aux moins de 12 ans

CÆest un Christian blesse qui tente de reconquerir Anastasia. Cette derniere 
exige un nouveau contrat avant de lui laisser une seconde chance. Mais une ombre 
surgit du passe de Christian et plane sur les deux amants, determinee a detruire 
un quelconque espoir de vie commune. 

================================================================================
*                        Fichiers contenus dans le post                        *
================================================================================

--------------------------------------------------------------------------------
Fifty.Shades.Darker.2017.Fr.BDRip.XviD.boheme \
--------------------------------------------------------------------------------
Fifty.Shades.Darker.2017.Fr.BDRip.XviD.boheme.avi                       02:11:28

Duree................: 02:11:28
Taille des fichiers..: 1.36 Go


--------------------------------------------------------------------------------
Fifty.Shades.Darker.2017.Fr.BDRip.XviD.boheme \Fifty.Shades.Darker.2017.Fr.BDRip
.XviD.boheme
--------------------------------------------------------------------------------
Fifty.Shades.Darker.2017.Fr.BDRip.XviD.boheme.nfo

Taille des fichiers..: 0 Octets

================================================================================
*Duree totale du post .........: 02:11:28                                      *
*Taille totale du post ........: 1.36 Go                                       *
================================================================================

================================================================================
*              Fifty.Shades.Darker.2017.Fr.BDRip.XviD.boheme.avi               *
================================================================================
*Format                        : AVI                                           *
*Format/Info                   : Audio Video Interleave                        *
*Format profile                : OpenDML                                       *
*Format settings               : rec                                           *
*File size                     : 1.36 GiB                                      *
*Duration                      : 2h 11mn                                       *
*Overall bit rate              : 1 485 Kbps                                    *
*Writing application           : AVI-Mux GUI 1.17.8, Aug 30 2008  12:36:58     *
*=================================== Video ====================================*
*ID                            : 0                                             *
*Format                        : MPEG-4 Visual                                 *
*Format profile                : Advanced [email protected]                            *
*Format settings, BVOP         : 1                                             *
*Format settings, QPel         : No                                            *
*Format settings, GMC          : No warppoints                                 *
*Format settings, Matrix       : Default (H.263)                               *
*Muxing mode                   : Packed bitstream                              *
*Codec ID                      : XVID                                          *
*Codec ID/Hint                 : XviD                                          *
*Duration                      : 2h 11mn                                       *
*Bit rate                      : 1 354 Kbps                                    *
*Width                         : 720 pixels                                    *
*Height                        : 304 pixels                                    *
*Display aspect ratio          : 2.35:1                                        *
*Frame rate                    : 23.976 fps                                    *
*Color space                   : YUV                                           *
*Chroma subsampling            : 4:2:0                                         *
*Bit depth                     : 8 bits                                        *
*Scan type                     : Progressive                                   *
*Compression mode              : Lossy                                         *
*Bits/(Pixel*Frame)            : 0.258                                         *
*Stream size                   : 1.24 GiB (91%)                                *
*Writing library               : XviD 1.2.1 (UTC 2008-12-04)                   *
*================================== Audio #1 ==================================*
*ID                            : 1                                             *
*Format                        : MPEG Audio                                    *
*Format version                : Version 1                                     *
*Format profile                : Layer 3                                       *
*Mode                          : Joint stereo                                  *
*Codec ID                      : 55                                            *
*Codec ID/Hint                 : MP3                                           *
*Duration                      : 2h 11mn                                       *
*Bit rate mode                 : Constant                                      *
*Bit rate                      : 128 Kbps                                      *
*Channel(s)                    : 2 channels                                    *
*Sampling rate                 : 48.0 KHz                                      *
*Compression mode              : Lossy                                         *
*Stream size                   : 120 MiB (9%)                                  *
*Alignment                     : Aligned on interleaves                        *
*Interleave, duration          : 618 ms (14.82 video frames)                   *
*Interleave, preload duration  : 216 ms                                        *
*Title                         : m                                             *
*Writing library               : LAME3.99r                                     *

================================================================================          *