14/08/2017

================================================================================
http://www.allocine.fr/film/fichefilm_gen_cfilm=228784.html
*                                                                              *

Date de sortie 5 avril 2017 (2h 04min)
De Dean Israelite
Avec Dacre Montgomery, RJ Cyler, Naomi Scott plus
Genres Action, Aventure, Science fiction
Nationalite americain
*                                                                              *
Dans une petite ville, cinq adolescents decouvrent quƆils ont des pouvoirs 
extraordinaires. Ils vont devoir apprendre a surmonter leurs peurs et a faire 
equipe pour devenir les Power Rangers : le destin les a choisis pour sauver le 
monde de la destruction orchestree par une force extraterrestre surpuissanteĆ  

================================================================================
*                        Fichiers contenus dans le post                        *
================================================================================

--------------------------------------------------------------------------------
Power.Rangers.2017.FR.DVDRiP.XViD.boheme \
--------------------------------------------------------------------------------
Power.Rangers.2017.FR.DVDRiP.XViD.boheme.avi                            01:58:54

Duree................: 01:58:54
Taille des fichiers..: 1.37 Go


--------------------------------------------------------------------------------
Power.Rangers.2017.FR.DVDRiP.XViD.boheme \Power.Rangers.2017.FR.DVDRiP.XViD.bohe
me
--------------------------------------------------------------------------------
Power.Rangers.2017.FR.DVDRiP.XViD.boheme.nfo

Taille des fichiers..: 0 Octets

================================================================================
*Duree totale du post .........: 01:58:54                                      *
*Taille totale du post ........: 1.37 Go                                       *
================================================================================

================================================================================
*                 Power.Rangers.2017.FR.DVDRiP.XViD.boheme.avi                 *
================================================================================
*Format                        : AVI                                           *
*Format/Info                   : Audio Video Interleave                        *
*File size                     : 1.37 GiB                                      *
*Duration                      : 1h 58mn                                       *
*Overall bit rate mode         : Variable                                      *
*Overall bit rate              : 1 647 Kbps                                    *
*Writing application           : VirtualDubMod 1.5.10.2 (build 2540/release)   *
*Writing library               : VirtualDubMod build 2540/release              *
*=================================== Video ====================================*
*ID                            : 0                                             *
*Format                        : MPEG-4 Visual                                 *
*Format profile                : Advanced [email protected]                            *
*Format settings, BVOP         : 2                                             *
*Format settings, QPel         : No                                            *
*Format settings, GMC          : No warppoints                                 *
*Format settings, Matrix       : Default (H.263)                               *
*Muxing mode                   : Packed bitstream                              *
*Codec ID                      : XVID                                          *
*Codec ID/Hint                 : XviD                                          *
*Duration                      : 1h 58mn                                       *
*Bit rate                      : 1 507 Kbps                                    *
*Width                         : 720 pixels                                    *
*Height                        : 304 pixels                                    *
*Display aspect ratio          : 2.35:1                                        *
*Frame rate                    : 25.000 fps                                    *
*Color space                   : YUV                                           *
*Chroma subsampling            : 4:2:0                                         *
*Bit depth                     : 8 bits                                        *
*Scan type                     : Progressive                                   *
*Compression mode              : Lossy                                         *
*Bits/(Pixel*Frame)            : 0.275                                         *
*Stream size                   : 1.25 GiB (92%)                                *
*Writing library               : XviD 67                                       *
*================================== Audio #1 ==================================*
*ID                            : 1                                             *
*Format                        : MPEG Audio                                    *
*Format version                : Version 1                                     *
*Format profile                : Layer 3                                       *
*Mode                          : Joint stereo                                  *
*Mode extension                : MS Stereo                                     *
*Codec ID                      : 55                                            *
*Codec ID/Hint                 : MP3                                           *
*Duration                      : 1h 58mn                                       *
*Bit rate mode                 : Variable                                      *
*Bit rate                      : 128 Kbps                                      *
*Channel(s)                    : 2 channels                                    *
*Sampling rate                 : 48.0 KHz                                      *
*Compression mode              : Lossy                                         *
*Stream size                   : 108 MiB (8%)                                  *
*Alignment                     : Aligned on interleaves                        *
*Interleave, duration          : 24 ms (0.60 video frame)                      *
*Interleave, preload duration  : 145 ms                                        *
*Writing library               : LAME3.90.                                     *

================================================================================             *