09/08/2017

================================================================================
http://www.allocine.fr/film/fichefilm_gen_cfilm=207486.html
*                                                                              *

Date de sortie 5 avril 2017 (1h 30min)
De Kelly Asbury
Avec Laetitia Milot, Gerard Hernandez, Arie Elmaleh plus
Genres Animation, Comedie
Nationalite americain
*                                                                              *
A partir de 3 ans

La Schtroumpfette, le Schtroumpf costaud, le Schtroumpf a lunettes et le 
Schtroumpf maladroit ont file en douce pour suivre une carte vers un mysterieux 
village. Mais le chemin qui y mene regorge d'embuches, de creatures magiques et 
de souterrains labyrinthiques. Il leur faudra par ailleurs redoubler de prudence 
puisque Gargamel n'est pas loin et compte bien les arreter. 

================================================================================
*                        Fichiers contenus dans le post                        *
================================================================================

--------------------------------------------------------------------------------
Smurfs.The.Lost.Village.2017.FR.BDRiP.XViD.boheme \
--------------------------------------------------------------------------------
Smurfs.The.Lost.Village.2017.FR.BDRiP.XViD.boheme.avi                   01:29:46

Duree................: 01:29:46
Taille des fichiers..: 699.63 Mo


--------------------------------------------------------------------------------
Smurfs.The.Lost.Village.2017.FR.BDRiP.XViD.boheme \Smurfs.The.Lost.Village.2017.
FR.BDRiP.XViD.boheme
--------------------------------------------------------------------------------
Smurfs.The.Lost.Village.2017.FR.BDRiP.XViD.boheme.nfo

Taille des fichiers..: 0 Octets

================================================================================
*Duree totale du post .........: 01:29:46                                      *
*Taille totale du post ........: 699.63 Mo                                     *
================================================================================

================================================================================
*            Smurfs.The.Lost.Village.2017.FR.BDRiP.XViD.boheme.avi             *
================================================================================
*Format                        : AVI                                           *
*Format/Info                   : Audio Video Interleave                        *
*File size                     : 700 MiB                                       *
*Duration                      : 1h 29mn                                       *
*Overall bit rate              : 1 090 Kbps                                    *
*Writing application           : VirtualDubMod 1.5.10.2 (build 2540/release)   *
*Writing library               : VirtualDubMod build 2540/release              *
*=================================== Video ====================================*
*ID                            : 0                                             *
*Format                        : MPEG-4 Visual                                 *
*Format profile                : Advanced [email protected]                            *
*Format settings, BVOP         : 2                                             *
*Format settings, QPel         : No                                            *
*Format settings, GMC          : No warppoints                                 *
*Format settings, Matrix       : Default (H.263)                               *
*Muxing mode                   : Packed bitstream                              *
*Codec ID                      : XVID                                          *
*Codec ID/Hint                 : XviD                                          *
*Duration                      : 1h 29mn                                       *
*Bit rate                      : 950 Kbps                                      *
*Width                         : 704 pixels                                    *
*Height                        : 384 pixels                                    *
*Display aspect ratio          : 1.85:1                                        *
*Frame rate                    : 23.976 fps                                    *
*Color space                   : YUV                                           *
*Chroma subsampling            : 4:2:0                                         *
*Bit depth                     : 8 bits                                        *
*Scan type                     : Progressive                                   *
*Compression mode              : Lossy                                         *
*Bits/(Pixel*Frame)            : 0.147                                         *
*Stream size                   : 610 MiB (87%)                                 *
*Writing library               : XviD 1.1.2 (UTC 2006-11-01)                   *
*================================== Audio #1 ==================================*
*ID                            : 1                                             *
*Format                        : MPEG Audio                                    *
*Format version                : Version 1                                     *
*Format profile                : Layer 3                                       *
*Mode                          : Joint stereo                                  *
*Mode extension                : MS Stereo                                     *
*Codec ID                      : 55                                            *
*Codec ID/Hint                 : MP3                                           *
*Duration                      : 1h 29mn                                       *
*Bit rate mode                 : Constant                                      *
*Bit rate                      : 32.0 Kbps                                     *
*Channel(s)                    : 2 channels                                    *
*Sampling rate                 : 48.0 KHz                                      *
*Compression mode              : Lossy                                         *
*Stream size                   : 81.5 MiB (12%)                                *
*Alignment                     : Aligned on interleaves                        *
*Interleave, duration          : 24 ms (0.58 video frame)                      *
*Interleave, preload duration  : 127 ms                                        *
*Writing library               : LAME3.90                                      *

================================================================================           *