16/08/2017

================================================================================
http://www.allocine.fr/film/fichefilm_gen_cfilm=233482.html
*                                                                              *

Date de sortie 2 aout 2017 sur Netflix (1h 30min)
De Issac Rentz
Avec Topher Grace, Alona Tal, Taye Diggs plus
Genre Comedie musicale
Nationalite americain
*                                                                              *
Ex-etoile montante de Broadway, Nick sÆest recycle en responsable de production
 persecute dÆune nouvelle comedie musicale sur des succes sans lendemain. 

================================================================================
*                        Fichiers contenus dans le post                        *
================================================================================

--------------------------------------------------------------------------------
Opening.Night.2016.FR.WEBRip.XviD.boheme \
--------------------------------------------------------------------------------
Opening.Night.2016.FR.WEBRip.XviD.boheme.avi                            01:24:01

Duree................: 01:24:01
Taille des fichiers..: 700.03 Mo


--------------------------------------------------------------------------------
Opening.Night.2016.FR.WEBRip.XviD.boheme \Opening.Night.2016.FR.WEBRip.XviD.bohe
me
--------------------------------------------------------------------------------
Opening.Night.2016.FR.WEBRip.XviD.boheme.nfo

Taille des fichiers..: 0 Octets

================================================================================
*Duree totale du post .........: 01:24:01                                      *
*Taille totale du post ........: 700.03 Mo                                     *
================================================================================

================================================================================
*                 Opening.Night.2016.FR.WEBRip.XviD.boheme.avi                 *
================================================================================
*Format                        : AVI                                           *
*Format/Info                   : Audio Video Interleave                        *
*File size                     : 700 MiB                                       *
*Duration                      : 1h 24mn                                       *
*Overall bit rate              : 1 165 Kbps                                    *
*Writing application           : Lavf57.25.100                                 *
*=================================== Video ====================================*
*ID                            : 0                                             *
*Format                        : MPEG-4 Visual                                 *
*Format profile                : Advanced [email protected]                            *
*Format settings, BVOP         : 2                                             *
*Format settings, QPel         : No                                            *
*Format settings, GMC          : No warppoints                                 *
*Format settings, Matrix       : Default (H.263)                               *
*Muxing mode                   : Packed bitstream                              *
*Codec ID                      : XVID                                          *
*Codec ID/Hint                 : XviD                                          *
*Duration                      : 1h 24mn                                       *
*Bit rate                      : 1 024 Kbps                                    *
*Width                         : 720 pixels                                    *
*Height                        : 300 pixels                                    *
*Display aspect ratio          : 2.40:1                                        *
*Frame rate                    : 23.976 fps                                    *
*Color space                   : YUV                                           *
*Chroma subsampling            : 4:2:0                                         *
*Bit depth                     : 8 bits                                        *
*Scan type                     : Progressive                                   *
*Compression mode              : Lossy                                         *
*Bits/(Pixel*Frame)            : 0.198                                         *
*Stream size                   : 615 MiB (88%)                                 *
*Writing library               : XviD 64                                       *
*================================== Audio #1 ==================================*
*ID                            : 1                                             *
*Format                        : MPEG Audio                                    *
*Format version                : Version 1                                     *
*Format profile                : Layer 3                                       *
*Codec ID                      : 55                                            *
*Codec ID/Hint                 : MP3                                           *
*Duration                      : 1h 24mn                                       *
*Bit rate mode                 : Constant                                      *
*Bit rate                      : 128 Kbps                                      *
*Channel(s)                    : 2 channels                                    *
*Sampling rate                 : 48.0 KHz                                      *
*Compression mode              : Lossy                                         *
*Stream size                   : 76.9 MiB (11%)                                *
*Alignment                     : Aligned on interleaves                        *
*Interleave, duration          : 24 ms (0.58 video frame)                      *
*Interleave, preload duration  : 72 ms                                         *
*Writing library               : LAME3.98.2                                    *

================================================================================