16/08/2017

================================================================================
http://www.allocine.fr/film/fichefilm_gen_cfilm=249074.html
*                                                                              *

Date de sortie 30 aout 2017 en DVD (1h 11min)
De Sam Liu
Avec Kevin Conroy, Loren Lester, Melissa Rauch plus
Genres Animation, Action, Aventure
Nationalite americain

================================================================================
*                        Fichiers contenus dans le post                        *
================================================================================

--------------------------------------------------------------------------------
Batman.And.Harley.Quinn.2017.FR.WEBRiP.XViD.boheme \
--------------------------------------------------------------------------------
Batman.And.Harley.Quinn.2017.FR.WEBRiP.XViD.boheme.avi                  01:14:11

Duree................: 01:14:11
Taille des fichiers..: 699.48 Mo


--------------------------------------------------------------------------------
Batman.And.Harley.Quinn.2017.FR.WEBRiP.XViD.boheme \Batman.And.Harley.Quinn.2017
.FR.WEBRiP.XViD.boheme
--------------------------------------------------------------------------------
Batman.And.Harley.Quinn.2017.FR.WEBRiP.XViD.boheme.nfo

Taille des fichiers..: 0 Octets

================================================================================
*Duree totale du post .........: 01:14:11                                      *
*Taille totale du post ........: 699.48 Mo                                     *
================================================================================

================================================================================
*            Batman.And.Harley.Quinn.2017.FR.WEBRiP.XViD.boheme.avi            *
================================================================================
*Format                        : AVI                                           *
*Format/Info                   : Audio Video Interleave                        *
*File size                     : 699 MiB                                       *
*Duration                      : 1h 14mn                                       *
*Overall bit rate mode         : Variable                                      *
*Overall bit rate              : 1 318 Kbps                                    *
*Writing application           : VirtualDubMod 1.5.10.2 (build 2540/release)   *
*Writing library               : VirtualDubMod build 2540/release              *
*=================================== Video ====================================*
*ID                            : 0                                             *
*Format                        : MPEG-4 Visual                                 *
*Format profile                : Advanced [email protected]                            *
*Format settings, BVOP         : 2                                             *
*Format settings, QPel         : No                                            *
*Format settings, GMC          : No warppoints                                 *
*Format settings, Matrix       : Default (H.263)                               *
*Muxing mode                   : Packed bitstream                              *
*Codec ID                      : XVID                                          *
*Codec ID/Hint                 : XviD                                          *
*Duration                      : 1h 14mn                                       *
*Bit rate                      : 1 176 Kbps                                    *
*Width                         : 720 pixels                                    *
*Height                        : 400 pixels                                    *
*Display aspect ratio          : 16:9                                          *
*Frame rate                    : 23.976 fps                                    *
*Color space                   : YUV                                           *
*Chroma subsampling            : 4:2:0                                         *
*Bit depth                     : 8 bits                                        *
*Scan type                     : Progressive                                   *
*Compression mode              : Lossy                                         *
*Bits/(Pixel*Frame)            : 0.170                                         *
*Stream size                   : 624 MiB (89%)                                 *
*Writing library               : XviD 1.1.2 (UTC 2006-11-01)                   *
*================================== Audio #1 ==================================*
*ID                            : 1                                             *
*Format                        : MPEG Audio                                    *
*Format version                : Version 1                                     *
*Format profile                : Layer 3                                       *
*Mode                          : Joint stereo                                  *
*Codec ID                      : 55                                            *
*Codec ID/Hint                 : MP3                                           *
*Duration                      : 1h 14mn                                       *
*Bit rate mode                 : Variable                                      *
*Bit rate                      : 128 Kbps                                      *
*Channel(s)                    : 2 channels                                    *
*Sampling rate                 : 48.0 KHz                                      *
*Compression mode              : Lossy                                         *
*Stream size                   : 68.8 MiB (10%)                                *
*Alignment                     : Aligned on interleaves                        *
*Interleave, duration          : 24 ms (0.58 video frame)                      *
*Interleave, preload duration  : 124 ms                                        *

================================================================================            *