19/08/2017

================================================================================
*                        Fichiers contenus dans le post                        *
================================================================================

--------------------------------------------------------------------------------
Security.2017.FR.BDRIP.XviD.boheme \
--------------------------------------------------------------------------------
Security.2017.FR.BDRIP.XviD.boheme.avi                                  01:31:53

Duree................: 01:31:53
Taille des fichiers..: 705.61 Mo


--------------------------------------------------------------------------------
Security.2017.FR.BDRIP.XviD.boheme \Security.2017.FR.BDRIP.XviD.boheme
--------------------------------------------------------------------------------
Security.2017.FR.BDRIP.XviD.boheme.nfo

Taille des fichiers..: 0 Octets

================================================================================
*Duree totale du post .........: 01:31:53                                      *
*Taille totale du post ........: 705.61 Mo                                     *
================================================================================

================================================================================
*                    Security.2017.FR.BDRIP.XviD.boheme.avi                    *
================================================================================
*Format                        : AVI                                           *
*Format/Info                   : Audio Video Interleave                        *
*File size                     : 706 MiB                                       *
*Duration                      : 1h 31mn                                       *
*Overall bit rate              : 1 074 Kbps                                    *
*Writing application           : Lavf57.25.100                                 *
*=================================== Video ====================================*
*ID                            : 0                                             *
*Format                        : MPEG-4 Visual                                 *
*Format profile                : Advanced [email protected]                            *
*Format settings, BVOP         : 1                                             *
*Format settings, QPel         : No                                            *
*Format settings, GMC          : No warppoints                                 *
*Format settings, Matrix       : Default (H.263)                               *
*Muxing mode                   : Packed bitstream                              *
*Codec ID                      : XVID                                          *
*Codec ID/Hint                 : XviD                                          *
*Duration                      : 1h 31mn                                       *
*Bit rate                      : 869 Kbps                                      *
*Width                         : 640 pixels                                    *
*Height                        : 268 pixels                                    *
*Display aspect ratio          : 2.40:1                                        *
*Frame rate                    : 23.976 fps                                    *
*Color space                   : YUV                                           *
*Chroma subsampling            : 4:2:0                                         *
*Bit depth                     : 8 bits                                        *
*Scan type                     : Progressive                                   *
*Compression mode              : Lossy                                         *
*Bits/(Pixel*Frame)            : 0.211                                         *
*Stream size                   : 571 MiB (81%)                                 *
*Writing library               : XviD 67                                       *
*================================== Audio #1 ==================================*
*ID                            : 1                                             *
*Format                        : MPEG Audio                                    *
*Format version                : Version 1                                     *
*Format profile                : Layer 3                                       *
*Codec ID                      : 55                                            *
*Codec ID/Hint                 : MP3                                           *
*Duration                      : 1h 31mn                                       *
*Bit rate mode                 : Constant                                      *
*Bit rate                      : 192 Kbps                                      *
*Channel(s)                    : 2 channels                                    *
*Sampling rate                 : 48.0 KHz                                      *
*Compression mode              : Lossy                                         *
*Stream size                   : 126 MiB (18%)                                 *
*Alignment                     : Aligned on interleaves                        *
*Interleave, duration          : 24 ms (0.58 video frame)                      *
*Interleave, preload duration  : 24 ms                                         *
*Writing library               : LAME3.98.2                                    *

================================================================================

pw : catalina