19/08/2017

================================================================================
http://www.allocine.fr/series/ficheserie_gen_cserie=20720.html
*                                                                              *
Creee par 	Matt Nix (2017)
Avec 	Blair Redford, Jamie Chung, Stephen Moyer plus
Nationalite 	Americaine
Genre 	Drame, Fantastique, Science fiction, Action
Statut 	En cours
Format 	42 minutes 
*                                                                              *
Des parents, dont les enfants developpent des pouvoirs mutants, sont obliges de 
fuir alors que le Gouvernement veut les enfermer. Ils rejoignent un reseau 
clandestin de mutants caches dans des souterrains et doivent rester unis pour 
urvivre face a l'adversite... 

================================================================================
*                        Fichiers contenus dans le post                        *
================================================================================

--------------------------------------------------------------------------------
Gifted.2017.FR.BDRip.XviD.boheme \
--------------------------------------------------------------------------------
Gifted.2017.FR.BDRip.XviD.boheme.avi                                    01:41:10

Duree................: 01:41:10
Taille des fichiers..: 700.33 Mo


--------------------------------------------------------------------------------
Gifted.2017.FR.BDRip.XviD.boheme \Gifted.2017.FR.BDRip.XviD.boheme
--------------------------------------------------------------------------------
Gifted.2017.FR.BDRip.XviD.boheme.nfo

Taille des fichiers..: 0 Octets

================================================================================
*Duree totale du post .........: 01:41:10                                      *
*Taille totale du post ........: 700.33 Mo                                     *
================================================================================

================================================================================
*                     Gifted.2017.FR.BDRip.XviD.boheme.avi                     *
================================================================================
*Format                        : AVI                                           *
*Format/Info                   : Audio Video Interleave                        *
*File size                     : 700 MiB                                       *
*Duration                      : 1h 41mn                                       *
*Overall bit rate              : 968 Kbps                                      *
*Writing application           : Lavf57.25.100                                 *
*=================================== Video ====================================*
*ID                            : 0                                             *
*Format                        : MPEG-4 Visual                                 *
*Format profile                : Advanced [email protected]                            *
*Format settings, BVOP         : 2                                             *
*Format settings, QPel         : No                                            *
*Format settings, GMC          : No warppoints                                 *
*Format settings, Matrix       : Default (H.263)                               *
*Muxing mode                   : Packed bitstream                              *
*Codec ID                      : XVID                                          *
*Codec ID/Hint                 : XviD                                          *
*Duration                      : 1h 41mn                                       *
*Bit rate                      : 827 Kbps                                      *
*Width                         : 720 pixels                                    *
*Height                        : 300 pixels                                    *
*Display aspect ratio          : 2.40:1                                        *
*Frame rate                    : 23.976 fps                                    *
*Color space                   : YUV                                           *
*Chroma subsampling            : 4:2:0                                         *
*Bit depth                     : 8 bits                                        *
*Scan type                     : Progressive                                   *
*Compression mode              : Lossy                                         *
*Bits/(Pixel*Frame)            : 0.160                                         *
*Stream size                   : 598 MiB (85%)                                 *
*Writing library               : XviD 67                                       *
*================================== Audio #1 ==================================*
*ID                            : 1                                             *
*Format                        : MPEG Audio                                    *
*Format version                : Version 1                                     *
*Format profile                : Layer 3                                       *
*Codec ID                      : 55                                            *
*Codec ID/Hint                 : MP3                                           *
*Duration                      : 1h 41mn                                       *
*Bit rate mode                 : Constant                                      *
*Bit rate                      : 128 Kbps                                      *
*Channel(s)                    : 2 channels                                    *
*Sampling rate                 : 48.0 KHz                                      *
*Compression mode              : Lossy                                         *
*Stream size                   : 92.6 MiB (13%)                                *
*Alignment                     : Aligned on interleaves                        *
*Interleave, duration          : 24 ms (0.58 video frame)                      *
*Interleave, preload duration  : 24 ms                                         *
*Writing library               : LAME3.98.2                                    *

================================================================================
pw : catalina