22/08/2017

================================================================================
http://www.allocine.fr/film/fichefilm_gen_cfilm=248637.html
*                                                                              *

Date de sortie 22 fevrier 2017 (1h 38min)
De Stephan Streker
Avec Lina El Arabi, Sebastien Houbani, Babak Karimi plus
Genre Drame
Nationalites belge, luxembourgeois, pakistanais, francais
*                                                                              *
Zahira, belgo-pakistanaise de dix-huit ans, est tres proche de chacun des 
membres de sa famille jusquÆau jour ou on lui impose un mariage traditionnel. 
Ecartelee entre les exigences de ses parents, son mode de vie occidental et ses
 aspirations de liberte, la jeune fille compte sur lÆaide de son grand frere et
 confident, Amir. 

================================================================================
*                        Fichiers contenus dans le post                        *
================================================================================

--------------------------------------------------------------------------------
Noces.2016.FR.BDrip.XWID.boheme \
--------------------------------------------------------------------------------
Noces.2016.FR.BDrip.XWID.boheme.avi                                     01:37:33

Duree................: 01:37:33
Taille des fichiers..: 695.86 Mo


--------------------------------------------------------------------------------
Noces.2016.FR.BDrip.XWID.boheme \Noces.2016.FR.BDrip.XWID.boheme
--------------------------------------------------------------------------------
Noces.2016.FR.BDrip.XWID.boheme.nfo

Taille des fichiers..: 0 Octets

================================================================================
*Duree totale du post .........: 01:37:33                                      *
*Taille totale du post ........: 695.86 Mo                                     *
================================================================================

================================================================================
*                     Noces.2016.FR.BDrip.XWID.boheme.avi                      *
================================================================================
*Format                        : AVI                                           *
*Format/Info                   : Audio Video Interleave                        *
*File size                     : 696 MiB                                       *
*Duration                      : 1h 37mn                                       *
*Overall bit rate              : 997 Kbps                                      *
*=================================== Video ====================================*
*ID                            : 0                                             *
*Format                        : MPEG-4 Visual                                 *
*Format profile                : Advanced [email protected]                            *
*Format settings, BVOP         : 1                                             *
*Format settings, QPel         : No                                            *
*Format settings, GMC          : No warppoints                                 *
*Format settings, Matrix       : Default (H.263)                               *
*Codec ID                      : XVID                                          *
*Codec ID/Hint                 : XviD                                          *
*Duration                      : 1h 37mn                                       *
*Bit rate                      : 863 Kbps                                      *
*Width                         : 720 pixels                                    *
*Height                        : 304 pixels                                    *
*Display aspect ratio          : 2.35:1                                        *
*Frame rate                    : 24.000 fps                                    *
*Color space                   : YUV                                           *
*Chroma subsampling            : 4:2:0                                         *
*Bit depth                     : 8 bits                                        *
*Scan type                     : Progressive                                   *
*Compression mode              : Lossy                                         *
*Bits/(Pixel*Frame)            : 0.164                                         *
*Stream size                   : 602 MiB (87%)                                 *
*Writing library               : XviD 67                                       *
*================================== Audio #1 ==================================*
*ID                            : 1                                             *
*Format                        : MPEG Audio                                    *
*Format version                : Version 1                                     *
*Format profile                : Layer 3                                       *
*Mode                          : Joint stereo                                  *
*Mode extension                : MS Stereo                                     *
*Codec ID                      : 55                                            *
*Codec ID/Hint                 : MP3                                           *
*Duration                      : 1h 37mn                                       *
*Bit rate mode                 : Constant                                      *
*Bit rate                      : 128 Kbps                                      *
*Channel(s)                    : 2 channels                                    *
*Sampling rate                 : 48.0 KHz                                      *
*Compression mode              : Lossy                                         *
*Stream size                   : 89.3 MiB (13%)                                *
*Alignment                     : Aligned on interleaves                        *
*Interleave, duration          : 167 ms (4.00 video frames)                    *
*Interleave, preload duration  : 216 ms                                        *
*Title                         : m                                             *
*Writing library               : LAME3.99r                                     *

================================================================================

pw : catalina