23/08/2017

================================================================================
http://www.allocine.fr/film/fichefilm_gen_cfilm=220316.html
*                                                                              *

Date de sortie 24 mai 2017 en e-Cinema (1h 39min)
De Eran Creevy
Avec Nicholas Hoult, Felicity Jones, Anthony Hopkins plus
Genres Thriller, Action
Nationalites britannique, americain, allemand
*                                                                              *
Casey Stein decouvre que la femme qu'il aime, gravement malade, ne peut etre
 soignee qu'au prix d'un couteux traitement. Au pied du mur, une seule option
 sÆoffre a lui : replonger dans le monde du crime. Au cours du braquage pour 
lequel il est engage, rien ne va se passer comme prevu. Pourchasse de toutes
 parts, il va devoir sÆengager dans une course poursuite infernale pour sauver
 sa vie. 

================================================================================
*                        Fichiers contenus dans le post                        *
================================================================================

--------------------------------------------------------------------------------
Collide.2016.FR.BDRip.XviD.boheme \
--------------------------------------------------------------------------------
Collide.2016.FR.BDRip.XviD.boheme.avi                                   01:38:42

Duree................: 01:38:42
Taille des fichiers..: 699.50 Mo


--------------------------------------------------------------------------------
Collide.2016.FR.BDRip.XviD.boheme \Collide.2016.FR.BDRip.XviD.boheme
--------------------------------------------------------------------------------
Collide.2016.FR.BDRip.XviD.boheme.nfo

Taille des fichiers..: 0 Octets

================================================================================
*Duree totale du post .........: 01:38:42                                      *
*Taille totale du post ........: 699.50 Mo                                     *
================================================================================

================================================================================
*                    Collide.2016.FR.BDRip.XviD.boheme.avi                     *
================================================================================
*Format                        : AVI                                           *
*Format/Info                   : Audio Video Interleave                        *
*File size                     : 699 MiB                                       *
*Duration                      : 1h 38mn                                       *
*Overall bit rate              : 991 Kbps                                      *
*=================================== Video ====================================*
*ID                            : 0                                             *
*Format                        : MPEG-4 Visual                                 *
*Format profile                : Advanced [email protected]                            *
*Format settings, BVOP         : 1                                             *
*Format settings, QPel         : No                                            *
*Format settings, GMC          : No warppoints                                 *
*Format settings, Matrix       : Default (H.263)                               *
*Muxing mode                   : Packed bitstream                              *
*Codec ID                      : XVID                                          *
*Codec ID/Hint                 : XviD                                          *
*Duration                      : 1h 38mn                                       *
*Bit rate                      : 857 Kbps                                      *
*Width                         : 720 pixels                                    *
*Height                        : 304 pixels                                    *
*Display aspect ratio          : 2.35:1                                        *
*Frame rate                    : 23.976 fps                                    *
*Color space                   : YUV                                           *
*Chroma subsampling            : 4:2:0                                         *
*Bit depth                     : 8 bits                                        *
*Scan type                     : Progressive                                   *
*Compression mode              : Lossy                                         *
*Bits/(Pixel*Frame)            : 0.163                                         *
*Stream size                   : 605 MiB (86%)                                 *
*Writing library               : XviD 1.2.1 (UTC 2008-12-04)                   *
*================================== Audio #1 ==================================*
*ID                            : 1                                             *
*Format                        : MPEG Audio                                    *
*Format version                : Version 1                                     *
*Format profile                : Layer 3                                       *
*Mode                          : Joint stereo                                  *
*Mode extension                : MS Stereo                                     *
*Codec ID                      : 55                                            *
*Codec ID/Hint                 : MP3                                           *
*Duration                      : 1h 38mn                                       *
*Bit rate mode                 : Constant                                      *
*Bit rate                      : 128 Kbps                                      *
*Channel(s)                    : 2 channels                                    *
*Sampling rate                 : 48.0 KHz                                      *
*Compression mode              : Lossy                                         *
*Stream size                   : 90.4 MiB (13%)                                *
*Alignment                     : Aligned on interleaves                        *
*Interleave, duration          : 167 ms (4.00 video frames)                    *
*Interleave, preload duration  : 216 ms                                        *
*Title                         : m                                             *
*Writing library               : LAME3.99r                                     *

===============================================================================         *


pw : catalina