24/08/2017

================================================================================
http://www.allocine.fr/film/fichefilm_gen_cfilm=256746.html
*                                                                              *

De Edward Neumeier
Avec Casper Van Dien, Dina Meyer, DeRay Davis
Genres Animation, Action
Nationalite americain
*                                                                              *
Johnny Rico est contraint de travailler avec un groupe de nouvelles recrues 
dans une station de Mars que des insectes geants comptent viser pour leur 
prochaine attaque. 

================================================================================
*                        Fichiers contenus dans le post                        *
================================================================================

--------------------------------------------------------------------------------
Starship.Troopers.Traitor.of.Mars.2017.FR.WEB-DL.XviD.boheme \
--------------------------------------------------------------------------------
Starship.Troopers.Traitor.of.Mars.2017.FR.WEB-DL.XviD.boheme.avi        01:27:41

Duree................: 01:27:41
Taille des fichiers..: 695.48 Mo


--------------------------------------------------------------------------------
Starship.Troopers.Traitor.of.Mars.2017.FR.WEB-DL.XviD.boheme \Starship.Troopers.
Traitor.of.Mars.2017.FR.WEB-DL.XviD.boheme
--------------------------------------------------------------------------------
Starship.Troopers.Traitor.of.Mars.2017.FR.WEB-DL.XviD.boheme.nfo

Taille des fichiers..: 0 Octets

================================================================================
*Duree totale du post .........: 01:27:41                                      *
*Taille totale du post ........: 695.48 Mo                                     *
================================================================================

================================================================================
*       Starship.Troopers.Traitor.of.Mars.2017.FR.WEB-DL.XviD.boheme.avi       *
================================================================================
*Format                        : AVI                                           *
*Format/Info                   : Audio Video Interleave                        *
*File size                     : 695 MiB                                       *
*Duration                      : 1h 27mn                                       *
*Overall bit rate              : 1 109 Kbps                                    *
*=================================== Video ====================================*
*ID                            : 0                                             *
*Format                        : MPEG-4 Visual                                 *
*Format profile                : Advanced [email protected]                            *
*Format settings, BVOP         : 1                                             *
*Format settings, QPel         : No                                            *
*Format settings, GMC          : No warppoints                                 *
*Format settings, Matrix       : Default (H.263)                               *
*Codec ID                      : XVID                                          *
*Codec ID/Hint                 : XviD                                          *
*Duration                      : 1h 27mn                                       *
*Bit rate                      : 975 Kbps                                      *
*Width                         : 720 pixels                                    *
*Height                        : 408 pixels                                    *
*Display aspect ratio          : 16:9                                          *
*Frame rate                    : 23.976 fps                                    *
*Color space                   : YUV                                           *
*Chroma subsampling            : 4:2:0                                         *
*Bit depth                     : 8 bits                                        *
*Scan type                     : Progressive                                   *
*Compression mode              : Lossy                                         *
*Bits/(Pixel*Frame)            : 0.138                                         *
*Stream size                   : 612 MiB (88%)                                 *
*Writing library               : XviD 67                                       *
*================================== Audio #1 ==================================*
*ID                            : 1                                             *
*Format                        : MPEG Audio                                    *
*Format version                : Version 1                                     *
*Format profile                : Layer 3                                       *
*Mode                          : Joint stereo                                  *
*Mode extension                : MS Stereo                                     *
*Codec ID                      : 55                                            *
*Codec ID/Hint                 : MP3                                           *
*Duration                      : 1h 27mn                                       *
*Bit rate mode                 : Constant                                      *
*Bit rate                      : 128 Kbps                                      *
*Channel(s)                    : 2 channels                                    *
*Sampling rate                 : 48.0 KHz                                      *
*Compression mode              : Lossy                                         *
*Stream size                   : 80.3 MiB (12%)                                *
*Alignment                     : Aligned on interleaves                        *
*Interleave, duration          : 167 ms (4.00 video frames)                    *
*Interleave, preload duration  : 216 ms                                        *
*Title                         : m                                             *
*Writing library               : LAME3.99r                                     *

================================================================================
pw : catalina