26/08/2017

================================================================================
http://www.allocine.fr/film/fichefilm_gen_cfilm=235975.html
*                                                                              *

Date de sortie 25 aout 2017 sur Netflix (1h 33min)
De Cary Murnion, Jonathan Milott
Avec Dave Bautista, Brittany Snow, Angelic Zambrana plus
Genres Action, Aventure
Nationalite americain
*                                                                              *
En sortant du metro pour aller chez sa grand-mere avec son petit-ami, Lucy se 
retrouve dans les rues de Buschwick un quartier de Brooklyn, plonge dans un 
veritable bain de sang. Dans un contexte de separatisme vis-a-vis de lÆUnion, 
les milices texanes envahissent New York pour en faire leur base dÆoperations sur
 la Cote Est et sÆen servir d'outil de negociations. Face a ce chaos, Lucy se 
refugie dans le sous-sol de Stupe, un robuste veteran. Ce dernier lÆaide a 
traverser, a contrecoeur, les quelques blocs de Bushwick la separant de la maison 
de sa grand-mere û en supposant que celle-ci existe toujours. 

================================================================================
*                        Fichiers contenus dans le post                        *
================================================================================

--------------------------------------------------------------------------------
Bushwick.2017.FR.wEBbrip.BOHEME \
--------------------------------------------------------------------------------
Bushwick.2017.FR.wEBbrip.BOHEME.avi                                     01:33:59

Duree................: 01:33:59
Taille des fichiers..: 700.42 Mo


--------------------------------------------------------------------------------
Bushwick.2017.FR.wEBbrip.BOHEME \Bushwick.2017.FR.wEBbrip.BOHEME
--------------------------------------------------------------------------------
Bushwick.2017.FR.wEBbrip.BOHEME.nfo

Taille des fichiers..: 0 Octets

================================================================================
*Duree totale du post .........: 01:33:59                                      *
*Taille totale du post ........: 700.42 Mo                                     *
================================================================================

================================================================================
*                     Bushwick.2017.FR.wEBbrip.BOHEME.avi                      *
================================================================================
*Format                        : AVI                                           *
*Format/Info                   : Audio Video Interleave                        *
*File size                     : 700 MiB                                       *
*Duration                      : 1h 33mn                                       *
*Overall bit rate              : 1 042 Kbps                                    *
*Writing application           : Lavf57.25.100                                 *
*=================================== Video ====================================*
*ID                            : 0                                             *
*Format                        : MPEG-4 Visual                                 *
*Format profile                : Advanced [email protected]                            *
*Format settings, BVOP         : 2                                             *
*Format settings, QPel         : No                                            *
*Format settings, GMC          : No warppoints                                 *
*Format settings, Matrix       : Default (H.263)                               *
*Muxing mode                   : Packed bitstream                              *
*Codec ID                      : XVID                                          *
*Codec ID/Hint                 : XviD                                          *
*Duration                      : 1h 33mn                                       *
*Bit rate                      : 901 Kbps                                      *
*Width                         : 720 pixels                                    *
*Height                        : 304 pixels                                    *
*Display aspect ratio          : 2.35:1                                        *
*Frame rate                    : 23.976 fps                                    *
*Color space                   : YUV                                           *
*Chroma subsampling            : 4:2:0                                         *
*Bit depth                     : 8 bits                                        *
*Scan type                     : Progressive                                   *
*Compression mode              : Lossy                                         *
*Bits/(Pixel*Frame)            : 0.172                                         *
*Stream size                   : 606 MiB (86%)                                 *
*Writing library               : XviD 64                                       *
*================================== Audio #1 ==================================*
*ID                            : 1                                             *
*Format                        : MPEG Audio                                    *
*Format version                : Version 1                                     *
*Format profile                : Layer 3                                       *
*Codec ID                      : 55                                            *
*Codec ID/Hint                 : MP3                                           *
*Duration                      : 1h 33mn                                       *
*Bit rate mode                 : Constant                                      *
*Bit rate                      : 128 Kbps                                      *
*Channel(s)                    : 2 channels                                    *
*Sampling rate                 : 48.0 KHz                                      *
*Compression mode              : Lossy                                         *
*Stream size                   : 86.1 MiB (12%)                                *
*Alignment                     : Aligned on interleaves                        *
*Interleave, duration          : 24 ms (0.58 video frame)                      *
*Interleave, preload duration  : 72 ms                                         *
*Writing library               : LAME3.98.2                                    *

================================================================================

pw : catalina