26/08/2017

================================================================================
http://www.allocine.fr/film/fichefilm_gen_cfilm=237763.html
*                                                                              *

Date de sortie 16 aout 2017 (1h 55min)
De David Leitch
Avec Charlize Theron, James McAvoy, Sofia Boutella plus
Genres Action, Espionnage
Nationalite americain
*                                                                              *
Interdit aux moins de 12 ans

L'agent Lorraine Broughton est une des meilleures espionne du Service de 
renseignement de Sa Majeste ; a la fois sensuelle et sauvage et prete a deployer 
toutes ses competences pour rester en vie durant sa mission impossible. Envoyee 
seule a Berlin dans le but de livrer un dossier de la plus haute importance dans
 cette ville au climat instable, elle s'associe avec David Percival, le chef de 
station local, et commence alors un jeu dÆespions des plus meurtriers. 

================================================================================
*                        Fichiers contenus dans le post                        *
================================================================================

--------------------------------------------------------------------------------
Atomic.Blonde.2017.FR.TS.MD.XViD.boheme \
--------------------------------------------------------------------------------
Atomic.Blonde.2017.FR.TS.MD.XViD.boheme.avi                             01:48:14

Duree................: 01:48:14
Taille des fichiers..: 1.38 Go


--------------------------------------------------------------------------------
Atomic.Blonde.2017.FR.TS.MD.XViD.boheme \Atomic.Blonde.2017.FR.TS.MD.XViD.boheme
--------------------------------------------------------------------------------
Atomic.Blonde.2017.FR.TS.MD.XViD.boheme.nfo

Taille des fichiers..: 0 Octets

================================================================================
*Duree totale du post .........: 01:48:14                                      *
*Taille totale du post ........: 1.38 Go                                       *
================================================================================

================================================================================
*                 Atomic.Blonde.2017.FR.TS.MD.XViD.boheme.avi                  *
================================================================================
*Format                        : AVI                                           *
*Format/Info                   : Audio Video Interleave                        *
*File size                     : 1.38 GiB                                      *
*Duration                      : 1h 48mn                                       *
*Overall bit rate              : 1 819 Kbps                                    *
*Writing application           : VirtualDubMod 1.5.1.1a (build 1155/release)   *
*Writing library               : VirtualDubMod build 1155/release              *
*=================================== Video ====================================*
*ID                            : 0                                             *
*Format                        : MPEG-4 Visual                                 *
*Format profile                : Advanced [email protected]                            *
*Format settings, BVOP         : 2                                             *
*Format settings, QPel         : No                                            *
*Format settings, GMC          : No warppoints                                 *
*Format settings, Matrix       : Default (H.263)                               *
*Muxing mode                   : Packed bitstream                              *
*Codec ID                      : XVID                                          *
*Codec ID/Hint                 : XviD                                          *
*Duration                      : 1h 48mn                                       *
*Bit rate                      : 1 671 Kbps                                    *
*Width                         : 720 pixels                                    *
*Height                        : 304 pixels                                    *
*Display aspect ratio          : 2.35:1                                        *
*Frame rate                    : 60.000 fps                                    *
*Original frame rate           : 60.014 fps                                    *
*Color space                   : YUV                                           *
*Chroma subsampling            : 4:2:0                                         *
*Bit depth                     : 8 bits                                        *
*Scan type                     : Progressive                                   *
*Compression mode              : Lossy                                         *
*Bits/(Pixel*Frame)            : 0.127                                         *
*Stream size                   : 1.26 GiB (92%)                                *
*Writing library               : XviD 1.1.2 (UTC 2006-11-01)                   *
*================================== Audio #1 ==================================*
*ID                            : 1                                             *
*Format                        : MPEG Audio                                    *
*Format version                : Version 1                                     *
*Format profile                : Layer 3                                       *
*Codec ID                      : 55                                            *
*Codec ID/Hint                 : MP3                                           *
*Duration                      : 1h 48mn                                       *
*Bit rate mode                 : Constant                                      *
*Bit rate                      : 128 Kbps                                      *
*Channel(s)                    : 2 channels                                    *
*Sampling rate                 : 48.0 KHz                                      *
*Compression mode              : Lossy                                         *
*Stream size                   : 99.1 MiB (7%)                                 *
*Alignment                     : Aligned on interleaves                        *
*Interleave, duration          : 24 ms (1.44 video frame)                      *
*Interleave, preload duration  : 480 ms                                        *

================================================================================
pw : catalina