29/08/2017

================================================================================
http://www.allocine.fr/film/fichefilm_gen_cfilm=2362.html
*                                                                              *

Date de reprise 19 juin 2013 (2h 30min)
Date de sortie 30 mars 1983 (2h 30min)
De directeur inconnu
Avec acteurs inconnus
Genres Drame, Romance
Nationalite americain
*                                                                              *
Un ecrivain recemment installe a New York se lie d'amitie avec un couple 
fort etrange. Il s'agit de Sophie, polonaise recemment installee aux 
tats-Unis et de son amant Nathan, brillant intellectuel juif.

================================================================================
*                        Fichiers contenus dans le post                        *
================================================================================

--------------------------------------------------------------------------------
The.Kings.Choice.2016.FR.HDRiP.XViD.boheme \
--------------------------------------------------------------------------------
The.Kings.Choice.2016.FR.HDRiP.XViD.boheme.avi                          02:10:24

Duree................: 02:10:24
Taille des fichiers..: 1.36 Go


--------------------------------------------------------------------------------
The.Kings.Choice.2016.FR.HDRiP.XViD.boheme \The.Kings.Choice.2016.FR.HDRiP.XViD.
boheme
--------------------------------------------------------------------------------
The.Kings.Choice.2016.FR.HDRiP.XViD.boheme.nfo

Taille des fichiers..: 0 Octets

================================================================================
*Duree totale du post .........: 02:10:24                                      *
*Taille totale du post ........: 1.36 Go                                       *
================================================================================

================================================================================
*                The.Kings.Choice.2016.FR.HDRiP.XViD.boheme.avi                *
================================================================================
*Format                        : AVI                                           *
*Format/Info                   : Audio Video Interleave                        *
*File size                     : 1.36 GiB                                      *
*Duration                      : 2h 10mn                                       *
*Overall bit rate              : 1 494 Kbps                                    *
*Writing application           : VirtualDubMod 1.5.1.1a (build 1155/release)   *
*Writing library               : VirtualDubMod build 1155/release              *
*=================================== Video ====================================*
*ID                            : 0                                             *
*Format                        : MPEG-4 Visual                                 *
*Format profile                : Advanced [email protected]                            *
*Format settings, BVOP         : 2                                             *
*Format settings, QPel         : No                                            *
*Format settings, GMC          : No warppoints                                 *
*Format settings, Matrix       : Default (H.263)                               *
*Muxing mode                   : Packed bitstream                              *
*Codec ID                      : XVID                                          *
*Codec ID/Hint                 : XviD                                          *
*Duration                      : 2h 10mn                                       *
*Bit rate                      : 1 356 Kbps                                    *
*Width                         : 720 pixels                                    *
*Height                        : 304 pixels                                    *
*Display aspect ratio          : 2.35:1                                        *
*Frame rate                    : 25.000 fps                                    *
*Color space                   : YUV                                           *
*Chroma subsampling            : 4:2:0                                         *
*Bit depth                     : 8 bits                                        *
*Scan type                     : Progressive                                   *
*Compression mode              : Lossy                                         *
*Bits/(Pixel*Frame)            : 0.248                                         *
*Stream size                   : 1.24 GiB (91%)                                *
*Writing library               : XviD 1.1.2 (UTC 2006-11-01)                   *
*================================== Audio #1 ==================================*
*ID                            : 1                                             *
*Format                        : MPEG Audio                                    *
*Format version                : Version 1                                     *
*Format profile                : Layer 3                                       *
*Codec ID                      : 55                                            *
*Codec ID/Hint                 : MP3                                           *
*Duration                      : 2h 10mn                                       *
*Bit rate mode                 : Constant                                      *
*Bit rate                      : 128 Kbps                                      *
*Channel(s)                    : 2 channels                                    *
*Sampling rate                 : 48.0 KHz                                      *
*Compression mode              : Lossy                                         *
*Stream size                   : 119 MiB (9%)                                  *
*Alignment                     : Aligned on interleaves                        *
*Interleave, duration          : 40 ms (1.00 video frame)                      *
*Interleave, preload duration  : 480 ms                                        *

================================================================================

pw : catalina