------------------------------------------------------------------------------------------
__, __, __,  _, _, _  _,  _,  _, __, __,    _, _,_
| \ |_) |_  /_\ |\/| (_  / ` /_\ |_) |_    ~_) |_/
|_/ | \ |   | | |  | , ) \ , | | |   |       ) | \
~   ~ ~ ~~~ ~ ~ ~  ~  ~   ~  ~ ~ ~   ~~~   ~~  ~ ~
Future Proof And Lov'in it ;)
------------------------------------------------------------------------------------------
General
Complete name                    : Bleach - 200 - The Hardest Body! Noitora is Cut Down [C-W].avi
Format                           : AVI
Format/Info                      : Audio Video Interleave
File size                        : 118 MiB
Duration                         : 21mn 52s
Overall bit rate                 : 753 Kbps
Writing library                  : VirtualDub build 34093/release

Video
ID                               : 0
Format                           : MPEG-4 Visual
Format profile                   : Advanced Simple@L5
Format settings, BVOP            : 2
Format settings, QPel            : No
Format settings, GMC             : No warppoints
Format settings, Matrix          : Default (H.263)
Muxing mode                      : Packed bitstream
Codec ID                         : XVID
Codec ID/Hint                    : XviD
Duration                         : 21mn 52s
Bit rate                         : 616 Kbps
Width                            : 704 pixels
Height                           : 480 pixels
Display aspect ratio             : 3:2
Frame rate                       : 23.976 fps
Standard                         : NTSC
Color space                      : YUV
Chroma subsampling               : 4:2:0
Bit depth                        : 8 bits
Scan type                        : Progressive
Compression mode                 : Lossy
Bits/(Pixel*Frame)               : 0.076
Stream size                      : 96.4 MiB (82%)
Writing library                  : XviD 63

Audio
ID                               : 1
Format                           : MPEG Audio
Format version                   : Version 1
Format profile                   : Layer 3
Mode                             : Joint stereo
Mode extension                   : MS Stereo
Codec ID                         : 55
Codec ID/Hint                    : MP3
Duration                         : 21mn 52s
Bit rate mode                    : Constant
Bit rate                         : 128 Kbps
Channel(s)                       : 2 channels
Sampling rate                    : 48.0 KHz
Compression mode                 : Lossy
Stream size                      : 20.0 MiB (17%)
Alignment                        : Split accross interleaves
Interleave, duration             : 42 ms (1.00 video frame)
Interleave, preload duration     : 500 ms

--------------------
| Post Information |
--------------------
  Posted by............................: Dream Dealer
  Compression method (RAR/ZIP).........: RAR
  File validation......................: N/A
  Part size............................: 40 MB
  Number of files......................: 12
  Total files size.....................: 120 MB
  Burn tested..........................: no
  Date of post (d.m.y).................: 17.04.2011
  Posted to............................: a.b.anime
  Re-posting policy....................: N/A

----------------
| Plot summary |
----------------
High school student Kurosaki Ichigo is unlike any ordinary kid. Why? Because he can see ghosts. 
Ever since a young age, he's been able to see spirits from the afterlife. Ichigo's life completely
 changes one day when he and his two sisters are attacked by an evil, hungry and tormented spirit 
known as a Hollow. Right in the nick of time, Ichigo and his siblings are aided by a Shinigami 
(Death God) named Kuchiki Rukia, whose responsibility it is to send good spirits (Pluses) to the 
afterlife known as Soul Society, and to purify Hollows and send them up to Soul Society. But during
the fight against the Hollow, Rukia is injured and must transfer her powers to Ichigo. 
With this newly acquired power, so begins Kurosaki Ichigo's training and duty as a Shinigami to 
maintain the balance between the world of the living and the world of the dead...

------------------------------------------------------------------------------------------
source: http://www.cartoonworld.org
-> dreamscape3k@hotmail.com
------------------------------------------------------------------------------------------
------------------------------------------------------------------------------------------