*******************************************************************************
Behind Enemy Lines 2 (2006) dvdrip divx ac3      
*******************************************************************************

Type.................: Film 
Compression Format...: RAR
File Validation......: Quickpar
DVD Ripped Uisng  ...: dvd decryptor/autgk/virtual dub
Video Format.........: xvid
Language.............: English
Subtitles............: None
Colour...............: same as source
Genre................: action history war
Movie Information....: http://www.imdb.com/title/tt0497329/
*******************************************************************************
Behind Enemy Lines II: Axis of Evil (2006) 

*******************************************************************************

Complete name                    : behind_enemy_lines2.avi
Format                           : AVI
Format/Info                      : Audio Video Interleave
File size                        : 701 MiB
Duration                         : 1h 35mn
Overall bit rate                 : 1 029 Kbps
Writing application              : VirtualDubMod 1.5.10.1 (build 2366/release)
Writing library                  : VirtualDubMod build 2366/release

Video
ID                               : 0
Format                           : MPEG-4 Visual
Format profile                   : Advanced Simple@L5
Format settings, BVOP            : Yes
Format settings, QPel            : No
Format settings, GMC             : No warppoints
Format settings, Matrix          : Default (H.263)
Codec ID                         : DX50
Codec ID/Hint                    : DivX 5
Duration                         : 1h 35mn
Bit rate                         : 827 Kbps
Width                            : 528 pixels
Height                           : 288 pixels
Display aspect ratio             : 16:9
Frame rate                       : 23.976 fps
Resolution                       : 8 bits
Colorimetry                      : 4:2:0
Scan type                        : Progressive
Bits/(Pixel*Frame)               : 0.227
Stream size                      : 564 MiB (80%)
Writing library                  : XviD 1.0.3 (UTC 2004-12-20)

Audio
ID                               : 1
Format                           : AC-3
Format/Info                      : Audio Coding 3
Codec ID                         : 2000
Duration                         : 1h 35mn
Bit rate mode                    : Constant
Bit rate                         : 192 Kbps
Channel(s)                       : 2 channels
Channel positions                : L R
Sampling rate                    : 48.0 KHz
Stream size                      : 131 MiB (19%)
Alignment                        : Split accross interleaves
Interleave, duration             : 42 ms (1.00 video frame)
Interleave, preload duration     : 500 ms