Blackthorn.2011.BRRip.XViD-DTRG

Size: 1.60 GiB
Video: XviD |720 x 304 | 1 842 Kbps | 24.000 fps
Audio: English | AC-3 | 384 Kbps
Runtime: 102 mins



Format                           : AVI
Format/Info                      : Audio Video Interleave
File size                        : 1.60 GiB
Duration                         : 1h 42mn
Overall bit rate                 : 2 235 Kbps
Writing application              : VirtualDubMod 1.5.10.2 (build 2540/release)
Writing library                  : VirtualDubMod build 2540/release
 
Video
ID                               : 0
Format                           : MPEG-4 Visual
Format profile                   : Advanced Simple@L5
Format settings, BVOP            : 2
Format settings, QPel            : No
Format settings, GMC             : No warppoints
Format settings, Matrix          : Default (H.263)
Muxing mode                      : Packed bitstream
Codec ID                         : XVID
Codec ID/Hint                    : XviD
Duration                         : 1h 42mn
Bit rate                         : 1 842 Kbps
Width                            : 720 pixels
Height                           : 304 pixels
Display aspect ratio             : 2.35:1
Frame rate                       : 24.000 fps
Color space                      : YUV
Chroma subsampling               : 4:2:0
Bit depth                        : 8 bits
Scan type                        : Progressive
Compression mode                 : Lossy
Bits/(Pixel*Frame)               : 0.351
Stream size                      : 1.32 GiB (82%)
Writing library                  : XviD 64
 
Audio
ID                               : 1
Format                           : AC-3
Format/Info                      : Audio Coding 3
Mode extension                   : CM (complete main)
Codec ID                         : 2000
Duration                         : 1h 42mn
Bit rate mode                    : Constant
Bit rate                         : 384 Kbps
Channel(s)                       : 6 channels
Channel positions                : Front: L C R, Side: L R, LFE
Sampling rate                    : 48.0 KHz
Bit depth                        : 16 bits
Compression mode                 : Lossy
Stream size                      : 281 MiB (17%)
Alignment                        : Split accross interleaves
Interleave, duration             : 42 ms (1.00 video frame)
Interleave, preload duration     : 500 ms
 

 
http://www.imdb.com/title/tt1629705/
 
In Bolivia, Butch Cassidy (now calling himself James Blackthorne) pines for one 
last sight of home, an adventure that aligns him with a young robber and makes 
the duo a target for gangs and lawmen alike.

Director: Mateo Gil
Stars: Sam Shepard, Eduardo Noriega and Stephen Rea 

Source Used: Blackthorn.2011.720p.BluRay.x264-DON......Thanks 
 
 
Enjoy
 
Greetz to IMAGiNE,Flawl3ss,EMBER,ETRG,BHRG,iLLUMiNATi,MiSTERE
 
http://img809.imageshack.us/img809/6408/vlcsnap2011111916h56m29.png
http://img690.imageshack.us/img690/3258/vlcsnap2011111916h54m46.png
http://img830.imageshack.us/img830/8025/vlcsnap2011111916h55m59.png