Cowboys.and.Aliens.2011.extended.BRrip-OlFa

Video: 720x296 Xvid @ 1785kbps
Audio: MP3 Stereo @ 128kbps
Length: 2hr 15m 13s (135mn)
Language: English
Subtitles: English HI in .srt file
Sample: yes
IMDB: http://www.imdb.com/title/tt0409847/

source: cowboys.and.aliens.2011.extended.720p.bluray.x264-crossbow

Format                           : AVI
Format/Info                      : Audio Video Interleave
Format profile                   : OpenDML
File size                        : 1.82 GiB
Duration                         : 2h 15mn
Overall bit rate                 : 1 926 Kbps
Writing application              : Lavf52.73.0

Video
ID                               : 0
Format                           : MPEG-4 Visual
Format profile                   : Simple@L3
Format settings, BVOP            : No
Format settings, QPel            : No
Format settings, GMC             : No warppoints
Format settings, Matrix          : Default (H.263)
Codec ID                         : XVID
Codec ID/Hint                    : XviD
Duration                         : 2h 15mn
Bit rate                         : 1 785 Kbps
Width                            : 720 pixels
Height                           : 296 pixels
Display aspect ratio             : 2.40:1
Frame rate                       : 23.976 fps
Color space                      : YUV
Chroma subsampling               : 4:2:0
Bit depth                        : 8 bits
Scan type                        : Progressive
Bits/(Pixel*Frame)               : 0.349
Stream size                      : 1.69 GiB (93%)
Writing library                  : XviD 1.2.1 (UTC 2008-12-04)

Audio
ID                               : 1
Format                           : MPEG Audio
Format version                   : Version 1
Format profile                   : Layer 3
Codec ID                         : 55
Codec ID/Hint                    : MP3
Duration                         : 4mn 6s
Bit rate mode                    : Constant
Bit rate                         : 128 Kbps
Channel(s)                       : 2 channels
Sampling rate                    : 48.0 KHz
Stream size                      : 3.76 MiB (0%)
Alignment                        : Aligned on interleaves
Interleave, duration             : 791 ms (18.96 video frames)
Writing library                  : LAME3.98.4