Hamburger.Hill.1987.WS.DVDRip.XViD.iNT-EwDp 

http://www.imdb.com/title/tt0093137/

A very realistic interpretation of one of the bloodiest battles of the Vietnam War.
A brutal and realistic war film focuses on the lives of a squad of 14 U.S. Army 
soldiers of B Company, 3rd Battalion, 187th Infanty Regiment, 101st Airborne 
Division during the brutal 10 day (May 11-20, 1969) battle for Hill 937 in the 
A Shau Valley of Vietnam as they try again and again to take the fortified hill 
held by the North Vietnamese.

Two 700mb AVI

Complete name                    : hambhill.xvid.ewdp.cd1.avi
Format                           : AVI
Format/Info                      : Audio Video Interleave
File size                        : 701 MiB
Duration                         : 46mn 51s
Overall bit rate                 : 2 090 Kbps
Writing application              : Nandub v1.0rc1
Writing library                  : Nandub build 1841/release

Video
ID                               : 0
Format                           : MPEG-4 Visual
Format profile                   : Advanced Simple@L5
Format settings, BVOP            : Yes
Format settings, QPel            : No
Format settings, GMC             : No warppoints
Format settings, Matrix          : Default (H.263)
Muxing mode                      : Packed bitstream
Codec ID                         : XVID
Codec ID/Hint                    : XviD
Duration                         : 46mn 51s
Bit rate                         : 1 986 Kbps
Width                            : 592 pixels
Height                           : 320 pixels
Display aspect ratio             : 1.850
Frame rate                       : 25.000 fps
Resolution                       : 8 bits
Colorimetry                      : 4:2:0
Scan type                        : Progressive
Bits/(Pixel*Frame)               : 0.419
Stream size                      : 666 MiB (95%)
Writing library                  : XviD 1.1.2 (UTC 2006-11-01)

Audio
ID                               : 1
Format                           : MPEG Audio
Format version                   : Version 1
Format profile                   : Layer 3
Mode                             : Joint stereo
Codec ID                         : 55
Codec ID/Hint                    : MP3
Duration                         : 46mn 51s
Bit rate mode                    : Variable
Bit rate                         : 92.7 Kbps
Minimum bit rate                 : 32.0 Kbps
Channel(s)                       : 2 channels
Sampling rate                    : 48.0 KHz
Stream size                      : 30.7 MiB (4%)
Alignment                        : Aligned on interleaves
Interleave, duration             : 24 ms (0.60 video frame)
Interleave, preload duration     : 190 ms
Writing library                  : LAME3.97b
Encoding settings                : -m j -V 5 -q 3 -lowpass 16 --vbr-new -b 32