Hell in the Pacific 1968 dvdrip xvid

http://www.imdb.com/title/tt0063056/

During World War II, an American pilot and a marooned Japanese navy 
captain are deserted on a small uninhabited island in the Pacific 
Ocean. There, they must cease their hostility and cooperate if they 
want to survive, but will they?

Includes Eng subs for non-English parts

=========
mediainfo:
Complete name                    : hell_in_the_pacific
.avi
Format                           : AVI
Format/Info                      : Audio Video Interleave
File size                        : 701 MiB
Duration                         : 1h 41mn
Overall bit rate                 : 964 Kbps
Writing application              : VirtualDubMod 1.5.1.1a (build 1639/release)
Writing library                  : VirtualDubMod build 1639/release

Video
ID                               : 0
Format                           : MPEG-4 Visual
Format profile                   : Simple@L3
Format settings, BVOP            : Yes
Format settings, QPel            : No
Format settings, GMC             : No warppoints
Format settings, Matrix          : Default (H.263)
Codec ID                         : XVID
Codec ID/Hint                    : XviD
Duration                         : 1h 41mn
Bit rate                         : 814 Kbps
Width                            : 576 pixels
Height                           : 240 pixels
Display aspect ratio             : 2.40:1
Frame rate                       : 23.976 fps
Resolution                       : 8 bits
Colorimetry                      : 4:2:0
Scan type                        : Progressive
Bits/(Pixel*Frame)               : 0.246
Stream size                      : 592 MiB (84%)
Writing library                  : XviD 1.0.0 (UTC 2004-05-09)

Audio
ID                               : 1
Format                           : MPEG Audio
Format version                   : Version 1
Format profile                   : Layer 3
Mode                             : Joint stereo / MS Stereo
Codec ID                         : 55
Codec ID/Hint                    : MP3
Duration                         : 1h 41mn
Bit rate mode                    : Variable
Bit rate                         : 137 Kbps
Minimum bit rate                 : 32.0 Kbps
Channel(s)                       : 2 channels
Sampling rate                    : 48.0 KHz
Stream size                      : 99.8 MiB (14%)
Alignment                        : Aligned on interleaves
Interleave, duration             : 24 ms (0.58 video frame)
Interleave, preload duration     : 128 ms
Writing library                  : LAME3.93