╔═──────────────────────────────═══════════════───────────────────────────────═╗
║                                                                              ║
║ :::  :::    :::::    :::     :::   :::::      :::    :::     :::    :::::    ║
║ :::  :::   :::::::   :::    :::   :::::::    :::::   :::     :::   :::::::   ║
║ :::  :::  :::::::::  :::   :::   :::::::::  ::: :::  :::     :::  :::::::::  ║
║ :::  :::  :::   :::  :::  :::    :::   :::  ::: :::  :::     :::  :::   :::  ║
║ :::  :::  :::   :::  :::::::     :::   :::  ::: :::  :::     :::  :::   :::  ║
║ :::  :::  :::   :::  ::::::      :::   :::  ::: :::  :::  :  :::  :::   :::  ║
║ :::  :::  :::   :::  :::::::     :::   :::  ::: :::  ::: ::: :::  :::   :::  ║
║ :::  :::  :::   :::  :::  :::    :::   :::  ::: :::  ::: : : :::  :::   :::  ║
║ :::..:::  :::   :::  :::   :::   :::   :::  ::: :::  ::::: :::::  :::   :::  ║
║  ::::::   :::   :::  :::    :::  :::   :::   :::::   ::::: :::::  :::   :::  ║
║   ::::    :::   :::  :::     ::: :::   :::    :::    ::::   ::::  :::   :::  ║
╠═──────────────────────────────═══════════════───────────────────────────────═╣
║                                                                              ║
│╨ ╨ ╨ ╨ ╨ ╨ ╨ ╨ ╨ ╨ ╨ ╨ ╨ ╨ ╨ ╨ ╨  NOTES  ╨ ╨ ╨ ╨ ╨ ╨ ╨ ╨ ╨ ╨ ╨ ╨ ╨ ╨ ╨ ╨ ╨ ╨ │
│                                                                              │
│╨ ╨ ╨ ╨ ╨ ╨ ╨ ╨ ╨ ╨ ╨ ╨ ╨ ╨ ╨ ╨ ╨  NOTES  ╨ ╨ ╨ ╨ ╨ ╨ ╨ ╨ ╨ ╨ ╨ ╨ ╨ ╨ ╨ ╨ ╨ ╨ │
│                                                                              │
│                                                                              │
│                                                                              │
│ Encoded By .......:UnKnOwN                                                   │
│ Runtime ..........:1:52                                                      │
│ IMDb URL .........:http://www.imdb.com/title/tt1570728/                      │
│ Language .........:English                                                   │
│ File Size ........:1.12gb                                                    │
│ Release Date ......... 2011                                                  │
│ Source       ......... Thanks bud                                            │
│ File Type    ......... Single AVI                                            │
│ PS3 Compatible ....... Who Cares                                             │
│ Genre        ......... Comedy/Roamnce                                        │
│                                                                              │
│                                                                              │
│ Video                                                                        │
│  ID                               : 0                                        │
│  Format                           : MPEG-4 Visual                            │
│  Format profile                   : Advanced Simple@L5                       │ 
│  Format settings, BVOP            : Yes                                      │ 
│  Format settings, QPel            : No                                       │ 
│  Format settings, GMC             : No warppoints                            │ 
│  Format settings, Matrix          : Custom                                   │ 
│  Codec ID                         : XVID                                     │ 
│  Codec ID/Hint                    : XviD                                     │ 
│  Duration                         : 1h 52mn                                  │ 
│  Bit rate                         : 1 254 Kbps                               │ 
│  Width                            : 640pixels                                │ 
│  Height                           : 304pixels                                │ 
│  Display aspect ratio             : 2.2.1                                    │ 
│  Frame rate                       : 29.997fps                                │ 
│  Color space                      : YUV                                      │ 
│  Chroma subsampling               : 4:2:0                                    │ 
│  Bit depth                        : 8 bits                                   │ 
│  Scan type                        : Progressive                              │ 
│  Bits/(Pixel*Frame)               : 0.234                                    │ 
│  Stream size                      : 892 MiB (86%)                            │ 
│  Writing library                  : XviD 1.2.1 (UTC 2008-12-04)              │
│                                                                              │
│                                                                              │
│ Audio                                                                        │ 
│ ID                               : 1                                         │ 
│ Format                           : AC3                                       │ 
│ Format/Info                      : Version 1                                 │ 
│ Mode extension                   : Layer 3                                   │ 
│ Codec ID                         : 2000                                      │ 
│ Duration                         : 1h 52mn                                   │ 
│ Bit rate mode                    : Constant                                  │ 
│ Bit rate                         : 256Kbps                                   │ 
│ Channel(s)                       : 2 channels                                │ 
│ Channel positions                : Front: L r                                │ 
│ Sampling rate                    : 44.0 KHz                                  │ 
│ Bit depth                        : 16 bits                                   │ 
│ Stream size                      : 302 MiB                                   │ 
│ Alignment                        : Aligned on interleaves                    │ 
│ Interleave, duration             : 42 ms (1.00 video frame)                  │ 
│ Interleave, preload duration     : 512 ms                                    │
│                                                                              │
│                                                                              │
│                                                                              │
│                                                                              │ 
│                                                                              │
│                                                                              │
│                                                                              │
│                                 SYSPNOSIS                                    │
│     A father's life unravels while he deals with a marital crisis and tries  │
│               to manage his relationship with his children.                  │
│                                                                              │
│                                                                              │
│                                RELEASE INFO                                  │
│     Made 45 cuts to angle and crop for first 20 minutes due to movement      │
│ rgb denoiser adjusted colors bla bla,Audio cleaned raised volume and muxed   │
│                          Now To READ NFO PART                                │
│ first 20 minutes has  movement we fixed it the best we could but not worth   │
│ putting to much work in to,there are auto focus issues through out cam that  │
│ last sometimes as long as 20 seconds,you will see black bars occasionally as │
║ we didn't want to crop  anymore then needed,now that you have read all this  ║
║ your choice to d/l and complain if you want not like we care 2 samples are   ║
║              included one showing the worst of the cam one normal.           ║
╚══════════════════════════════════════════════════════════════════════════════╝
╔═╦═══════╗        ╔─╦──╦───╦────╦═───═╦═───═╦────╦───╦──╦─╗         ╔═══════╦═╗
╚╬╝       ╚─═════─═╝═╩══╩═══╩════╩═════╩═════╩════╩═══╩══╩═╚═─═════─═╝       ╚╬╝
 ║                                                                            ║ 
 ║                                LOOKING FOR                                 ║ 
 ║                                                                            ║ 
 ║           Pre Released DVDR's,R5,line audio,cam audio,Silver suppliers     ║ 
 ║               Have anything to offer?If you do keep it to yourself         ║ 
 ║                               We don't want it(:                           ║ 
 ║                                                                            ║ 
 ║                                                                            ║ 
╔╬╦══════════════════════════════════════════════════════════════════════════╦╬╗
╚╦╝ ╨ ╨ ╨ ╨ ╨ ╨ ╨ ╨ ╨ ╨ ╨ ╨ ╨ ╨ GREETZ & RESPECT ╨ ╨ ╨ ╨  ╨ ╨ ╨ ╨ ╨ ╨ ╨ ╨ ╨ ╨╚╦╝
 ╚═══════════════════════╦══════════════════════════════╦═════════════════════╝ 
                         ║ NOBODY YET WILL LET YOU KNOW ║                       
                         ║                              ║                       
                         ║ MORE GOODIES COMING REAL SOON║                       
                         ╚══════════════════════════════╝