The Great Raid (2005) Dvdrip Xvid

Release Date:12 August 2005 (USA) 

Genre:Action / Drama / War 

Set in the Philippines in 1945 towards the end of WWII, under the command of 
Lieutenant Colonel Henry Mucci and Captain Robert Prince, the 6th Ranger 
Battalion undertake a daring rescue mission against all odds. 
Traveling thirty miles behind enemy lines, they intend to liberate over 500 
American Soldiers from the notorious Cabanatuan Japanese POW camp in the 
most audacious rescue ever.

Runtime:132 min 
Country:USA / Australia 
Color:Black and White / Color 
Aspect Ratio of this release: 4:3

Cast (Cast overview, first billed only)

 Benjamin Bratt ...  Lt. Colonel Mucci 
 James Franco ...  Captain Prince 
 Robert Mammone ...  Captain Fisher 
 Max Martini ...  1st Sgt. Sid "Top" Wojo 
 James Carpinello ...  Cpl. Aliteri 
 Mark Consuelos ...  Cpl. Guttierez 
 Craig McLachlan ...  2nd Lt. Riley 
 Freddie Joe Farnsworth ...  2nd Lt. Foley 
 Laird Macintosh ...  2nd Lt. O'Grady 
 Jeremy Callaghan ...  Lt. Able 
 Cesar Montano ...  Guerilla Leader Juan Pajota 
 Scott McLean ...  Lt. LeClaire 
 Paolo Montalban ...  Sgt. Valera 
 Clayne Crawford ...  PFC Aldrige 
 Sam Worthington ...  PFC Lucas  

Complete name                    : Great Raid.avi
Format                           : AVI
Format/Info                      : Audio Video Interleave
File size                        : 1.47 GiB
Duration                         : 2h 12mn
Overall bit rate                 : 1 579 Kbps
Writing library                  : VirtualDub build 24442/release

Video
ID                               : 0
Format                           : MPEG-4 Visual
Format profile                   : Advanced Simple@L5
Format settings, BVOP            : Yes
Format settings, QPel            : No
Format settings, GMC             : No warppoints
Format settings, Matrix          : Default (H.263)
Muxing mode                      : Packed bitstream
Codec ID                         : XVID
Codec ID/Hint                    : XviD
Duration                         : 2h 12mn
Bit rate                         : 1 343 Kbps
Width                            : 640 pixels
Height                           : 480 pixels
Display aspect ratio             : 4:3
Frame rate                       : 29.970 fps
Resolution                       : 8 bits
Colorimetry                      : 4:2:0
Scan type                        : Progressive
Bits/(Pixel*Frame)               : 0.146
Stream size                      : 1.25 GiB (85%)
Writing library                  : XviD 1.1.2 (UTC 2006-11-01)

Audio
ID                               : 1
Format                           : MPEG Audio
Format version                   : Version 1
Format profile                   : Layer 3
Codec ID                         : 55
Codec ID/Hint                    : MP3
Duration                         : 2h 12mn
Bit rate mode                    : Constant
Bit rate                         : 224 Kbps
Channel(s)                       : 2 channels
Sampling rate                    : 44.1 KHz
Video delay                      : 26ms
Stream size                      : 213 MiB (14%)
Alignment                        : Split accross interleaves
Interleave, duration             : 33 ms (1.00 video frame)
Interleave, preload duration     : 500 ms
Writing library                  : LAME3.92