Generated using rarnpar
To get rarnpar please visit: http://tad-do.net/rarnpar/

General
Unique ID                                : 230520194312235563505338873911844299081 (0xAD6C9312828DFAC5BFC60726DC446149)
Complete name                            : dune.extended.edition.1984.widescreen.dvdrip.x265-deathstrike.mkv
Format                                   : Matroska
Format version                           : Version 2
File size                                : 2.25 GiB
Duration                                 : 2h 56mn
Overall bit rate                         : 1 823 Kbps
Encoded date                             : UTC 2017-02-19 13:15:16
Writing application                      : mkvmerge v8.5.2 ('Crosses') 32bit
Writing library                          : libebml v1.3.3 + libmatroska v1.4.4
DURATION                                 : 02:52:39.472000000
NUMBER_OF_FRAMES                         : 1892
NUMBER_OF_BYTES                          : 1989813
_STATISTICS_WRITING_APP                  : mkvmerge v8.5.2 ('Crosses') 32bit
_STATISTICS_WRITING_DATE_UTC             : 2017-02-19 13:15:16
_STATISTICS_TAGS                         : BPS DURATION NUMBER_OF_FRAMES NUMBER_OF_BYTES

Video
ID                                       : 1
Format                                   : V_MPEGH/ISO/HEVC
Codec ID                                 : V_MPEGH/ISO/HEVC
Duration                                 : 2h 56mn
Bit rate                                 : 1 339 Kbps
Width                                    : 720 pixels
Height                                   : 296 pixels
Display aspect ratio                     : 2.40:1
Frame rate                               : 23.976 fps
Bits/(Pixel*Frame)                       : 0.262
Stream size                              : 1.66 GiB (73%)
Default                                  : Yes
Forced                                   : No

Audio
ID                                       : 2
Format                                   : AC-3
Format/Info                              : Audio Coding 3
Mode extension                           : CM (complete main)
Codec ID                                 : A_AC3
Duration                                 : 2h 56mn
Bit rate mode                            : Constant
Bit rate                                 : 448 Kbps
Channel(s)                               : 6 channels
Channel positions                        : Front: L C R, Side: L R, LFE
Sampling rate                            : 48.0 KHz
Bit depth                                : 16 bits
Compression mode                         : Lossy
Stream size                              : 567 MiB (25%)
Language                                 : English
Default                                  : Yes
Forced                                   : No

Text
ID                                       : 3
Format                                   : VobSub
Muxing mode                              : zlib
Codec ID                                 : S_VOBSUB
Codec ID/Info                            : The same subtitle format used on DVDs
Language                                 : English
Default                                  : Yes
Forced                                   : No

Menu
00:00:00.000                             : :Chapter 01
00:09:15.500                             : :Chapter 02
00:18:00.334                             : :Chapter 03
00:30:49.534                             : :Chapter 04
00:42:57.468                             : :Chapter 05
00:54:01.336                             : :Chapter 06
01:02:31.436                             : :Chapter 07
01:12:57.469                             : :Chapter 08
01:24:21.769                             : :Chapter 09
01:29:56.836                             : :Chapter 10
01:45:05.737                             : :Chapter 11
01:54:25.237                             : :Chapter 12
02:11:59.370                             : :Chapter 13
02:23:05.470                             : :Chapter 14
02:32:47.304                             : :Chapter 15
02:41:40.404                             : :Chapter 16
02:46:56.638                             : :Chapter 17
02:53:18.339                             : :Chapter 18
02:56:47.073                             : :Chapter 19