General
Unique ID                      : 287019370610088624065335481762017871300 (0xD7EDEB883F3D939C1156C8DD641685C4)
Complete name                  : Dead.Run.2005.BluRay.1080p.x265.10bit.BMTeam.mkv
Format                         : Matroska
Format version                 : Version 4
File size                      : 13.1 GiB
Duration                       : 2 h 4 min
Overall bit rate               : 15.1 Mb/s
Encoded date                   : UTC 2019-04-10 21:42:20
Writing application            : HandBrake 1.2.2 2019022300
Writing library                : Lavf58.20.100
ErrorDetectionType             : Per level 1

Video
ID                             : 1
Format                         : HEVC
Format/Info                    : High Efficiency Video Coding
Format profile                 : Main [email protected]@Main
Codec ID                       : V_MPEGH/ISO/HEVC
Duration                       : 2 h 4 min
Bit rate                       : 13.3 Mb/s
Width                          : 1 920 pixels
Height                         : 1 036 pixels
Display aspect ratio           : 1.85:1
Frame rate mode                : Constant
Frame rate                     : 23.976 (24000/1001) FPS
Color space                    : YUV
Chroma subsampling             : 4:2:0
Bit depth                      : 10 bits
Bits/(Pixel*Frame)             : 0.278
Stream size                    : 11.5 GiB (88%)
Writing library                : x265 2.9:[Windows][GCC 8.2.0][64 bit] 10bit
Encoding settings              : cpuid=1111039 / frame-threads=3 / numa-pools=12 / wpp / no-pmode / no-pme / no-psnr / no-ssim / log-level=2 / input-csp=1 / input-res=1920x1036 / interlace=0 / total-frames=0 / level-idc=0 / high-tier=1 / uhd-bd=0 / ref=4 / no-allow-non-conformance / no-repeat-headers / annexb / no-aud / no-hrd / info / hash=0 / no-temporal-layers / open-gop / min-keyint=24 / keyint=240 / gop-lookahead=0 / bframes=4 / b-adapt=2 / b-pyramid / bframe-bias=0 / rc-lookahead=25 / lookahead-slices=4 / scenecut=40 / radl=0 / no-intra-refresh / ctu=64 / min-cu-size=8 / rect / no-amp / max-tu-size=32 / tu-inter-depth=1 / tu-intra-depth=1 / limit-tu=0 / rdoq-level=2 / dynamic-rd=0.00 / no-ssim-rd / signhide / no-tskip / nr-intra=0 / nr-inter=0 / no-constrained-intra / strong-intra-smoothing / max-merge=3 / limit-refs=3 / limit-modes / me=3 / subme=3 / merange=57 / temporal-mvp / weightp / no-weightb / no-analyze-src-pics / deblock=0:0 / sao / no-sao-non-deblock / rd=4 / no-early-skip / rskip / no-fast-intra / no-tskip-fast / no-cu-lossless / no-b-intra / no-splitrd-skip / rdpenalty=0 / psy-rd=2.00 / psy-rdoq=1.00 / no-rd-refine / no-lossless / cbqpoffs=0 / crqpoffs=0 / rc=crf / crf=19.0 / qcomp=0.60 / qpstep=4 / stats-write=0 / stats-read=0 / ipratio=1.40 / pbratio=1.30 / aq-mode=1 / aq-strength=1.00 / cutree / zone-count=0 / no-strict-cbr / qg-size=32 / no-rc-grain / qpmax=69 / qpmin=0 / no-const-vbv / sar=1 / overscan=0 / videoformat=5 / range=0 / colorprim=1 / transfer=1 / colormatrix=1 / chromaloc=0 / display-window=0 / max-cll=0,0 / min-luma=0 / max-luma=1023 / log2-max-poc-lsb=8 / vui-timing-info / vui-hrd-info / slices=1 / no-opt-qp-pps / no-opt-ref-list-length-pps / no-multi-pass-opt-rps / scenecut-bias=0.05 / no-opt-cu-delta-qp / no-aq-motion / no-hdr / no-hdr-opt / no-dhdr10-opt / no-idr-recovery-sei / analysis-reuse-level=5 / scale-factor=0 / refine-intra=0 / refine-inter=0 / refine-mv=0 / no-limit-sao / ctu-info=0 / no-lowpass-dct / refine-mv-type=0 / copy-pic=1 / max-ausize-factor=1.0 / no-dynamic-refine / no-single-sei
Default                        : Yes
Forced                         : No
Color range                    : Limited
Color primaries                : BT.709
Transfer characteristics       : BT.709
Matrix coefficients            : BT.709

Audio
ID                             : 2
Format                         : DTS
Format/Info                    : Digital Theater Systems
Codec ID                       : A_DTS
Duration                       : 2 h 4 min
Bit rate mode                  : Constant
Bit rate                       : 1 509 kb/s
Channel(s)                     : 2 channels
Channel layout                 : L R
Sampling rate                  : 48.0 kHz
Frame rate                     : 93.750 FPS (512 SPF)
Bit depth                      : 24 bits
Compression mode               : Lossy
Delay relative to video        : 53 ms
Stream size                    : 1.31 GiB (10%)
Title                          : Stereo
Language                       : Japanese
Default                        : Yes
Forced                         : No

Text #1
ID                             : 3
Format                         : PGS
Codec ID                       : S_HDMV/PGS
Codec ID/Info                  : Picture based subtitle format used on BDs/HD-DVDs
Duration                       : 2 h 0 min
Language                       : English
Default                        : No
Forced                         : No

Text #2
ID                             : 4
Format                         : PGS
Codec ID                       : S_HDMV/PGS
Codec ID/Info                  : Picture based subtitle format used on BDs/HD-DVDs
Duration                       : 2 h 4 min
Language                       : Japanese
Default                        : No
Forced                         : No

Menu
00:00:00.000                   : :Chapter 1
00:02:23.393                   : :Chapter 2
00:12:51.062                   : :Chapter 3
00:21:27.745                   : :Chapter 4
00:26:27.169                   : :Chapter 5
00:29:45.742                   : :Chapter 6
00:34:46.418                   : :Chapter 7
00:40:06.362                   : :Chapter 8
00:44:54.233                   : :Chapter 9
00:52:27.353                   : :Chapter 10
01:00:04.142                   : :Chapter 11
01:07:54.445                   : :Chapter 12
01:12:36.185                   : :Chapter 13
01:16:19.116                   : :Chapter 14
01:22:18.517                   : :Chapter 15
01:36:49.262                   : :Chapter 16
01:42:20.551                   : :Chapter 17
01:48:26.000                   : :Chapter 18
01:57:46.726                   : :Chapter 19
02:00:49.951                   : :Chapter 20