Naissance des Pieuvres (Water Lilies)(2007)

https://www.imdb.com/title/tt0869977/

After meeting at a local pool over their summer break, a love triangle forms between three adolescent girls, 
which proves difficult to sustain as they each desire the love of another. 

NTSC DVD REMUX WITH ADDED SUBTITLE TRACKS:

General
Complete name               : Naissance.des.Pieuvres.Water.Lilies.2007.480p.DD.2.0.MPEG.1-2.MULTi.mkv
Format                      : Matroska
Format version              : Version 4
File size                   : 3.38 GiB
Duration                    : 1 h 23 min
Overall bit rate mode       : Variable
Overall bit rate            : 5 782 kb/s
Encoded date                : UTC 2019-04-13 22:30:02
Writing application         : mkvmerge v33.0.0 ('A Little Bit of Madness') 64-bit
Writing library             : libebml v1.3.7 + libmatroska v1.5.0

Video
ID                          : 1
Format                      : MPEG Video
Format version              : Version 2
Format profile              : [email protected]
Format settings             : BVOP
Format settings, BVOP       : Yes
Format settings, Matrix     : Default
Format settings, GOP        : M=3, N=10
Format settings, picture st : Frame
Codec ID                    : V_MPEG2
Codec ID/Info               : MPEG 1 or 2 Video
Duration                    : 1 h 23 min
Bit rate mode               : Variable
Bit rate                    : 5 585 kb/s
Maximum bit rate            : 8 000 kb/s
Width                       : 720 pixels
Height                      : 480 pixels
Display aspect ratio        : 16:9
Original display aspect rat : 2.40:1
Frame rate mode             : Variable
Frame rate                  : 29.970 FPS
Standard                    : NTSC
Color space                 : YUV
Chroma subsampling          : 4:2:0
Bit depth                   : 8 bits
Scan type                   : Interlaced
Scan order                  : Top Field First
Compression mode            : Lossy
Bits/(Pixel*Frame)          : 0.539
Time code of first frame    : 00:59:59;10
Time code source            : Group of pictures header
GOP, Open/Closed            : Open
Stream size                 : 3.26 GiB (97%)
Default                     : Yes
Forced                      : No
Color primaries             : BT.601 NTSC
Transfer characteristics    : BT.601
Matrix coefficients         : BT.601

Audio
ID                          : 2
Format                      : AC-3
Format/Info                 : Audio Coding 3
Commercial name             : Dolby Digital
Codec ID                    : A_AC3
Duration                    : 1 h 23 min
Bit rate mode               : Constant
Bit rate                    : 192 kb/s
Channel(s)                  : 2 channels
Channel layout              : L R
Sampling rate               : 48.0 kHz
Frame rate                  : 31.250 FPS (1536 SPF)
Bit depth                   : 16 bits
Compression mode            : Lossy
Stream size                 : 115 MiB (3%)
Language                    : French
Service kind                : Complete Main
Default                     : Yes
Forced                      : No

Text #1
ID                          : 3
Format                      : UTF-8
Codec ID                    : S_TEXT/UTF8
Codec ID/Info               : UTF-8 Plain Text
Duration                    : 1 h 16 min
Bit rate                    : 14 b/s
Count of elements           : 325
Stream size                 : 8.29 KiB (0%)
Language                    : English
Default                     : No
Forced                      : No

Text #2
ID                          : 4
Format                      : UTF-8
Codec ID                    : S_TEXT/UTF8
Codec ID/Info               : UTF-8 Plain Text
Duration                    : 1 h 16 min
Bit rate                    : 14 b/s
Count of elements           : 323
Stream size                 : 8.35 KiB (0%)
Language                    : German
Default                     : No
Forced                      : No

Text #3
ID                          : 5
Format                      : UTF-8
Codec ID                    : S_TEXT/UTF8
Codec ID/Info               : UTF-8 Plain Text
Duration                    : 1 h 16 min
Bit rate                    : 16 b/s
Count of elements           : 404
Stream size                 : 9.20 KiB (0%)
Language                    : French
Default                     : No
Forced                      : No

Text #4
ID                          : 6
Format                      : UTF-8
Codec ID                    : S_TEXT/UTF8
Codec ID/Info               : UTF-8 Plain Text
Duration                    : 1 h 19 min
Bit rate                    : 14 b/s
Count of elements           : 326
Stream size                 : 8.75 KiB (0%)
Language                    : Italian
Default                     : No
Forced                      : No

Text #5
ID                          : 7
Format                      : UTF-8
Codec ID                    : S_TEXT/UTF8
Codec ID/Info               : UTF-8 Plain Text
Duration                    : 1 h 16 min
Bit rate                    : 15 b/s
Count of elements           : 324
Stream size                 : 8.58 KiB (0%)
Language                    : Spanish
Default                     : No
Forced                      : No

Text #6
ID                          : 8
Format                      : UTF-8
Codec ID                    : S_TEXT/UTF8
Codec ID/Info               : UTF-8 Plain Text
Duration                    : 1 h 16 min
Bit rate                    : 15 b/s
Count of elements           : 326
Stream size                 : 8.54 KiB (0%)
Language                    : Dutch
Default                     : No
Forced                      : No

Menu
00:00:00.000                : :Chapter 01
00:08:49.000                : :Chapter 02
00:16:22.333                : :Chapter 03
00:21:29.999                : :Chapter 04
00:26:12.665                : :Chapter 05
00:33:04.998                : :Chapter 06
00:42:42.998                : :Chapter 07
00:46:22.331                : :Chapter 08
00:55:42.664                : :Chapter 09
01:02:31.330                : :Chapter 10
01:12:43.330                : :Chapter 11
01:21:29.996                : :Chapter 12
01:23:33.329                : :Chapter 13