http://www.imdb.com/title/tt0970179/
http://www.allocine.fr/film/fichefilm_gen_cfilm=136181.html

General
Complete name                    : Hugo.Cabret.2011.MULTi.1080p.BluRay.x264.DTS-AC3.mkv
Format                           : Matroska
Format version                   : Version 2
File size                        : 9.15 GiB
Duration                         : 2h 6mn
Overall bit rate                 : 10.4 Mbps
Movie name                       : Hugo (2011)
Encoded date                     : UTC 2012-02-19 09:16:10
Writing application              : mkvmerge v5.2.1 ('A Far Off Place') built on Jan  2 2012 23:21:10
Writing library                  : libebml v1.2.3 + libmatroska v1.3.0

Video
ID                               : 1
Format                           : AVC
Format/Info                      : Advanced Video Codec
Format profile                   : High@L4.1
Format settings, CABAC           : Yes
Format settings, ReFrames        : 4 frames
Codec ID                         : V_MPEG4/ISO/AVC
Duration                         : 2h 6mn
Bit rate                         : 8 399 Kbps
Width                            : 1 920 pixels
Height                           : 1 080 pixels
Display aspect ratio             : 16:9
Frame rate                       : 23.976 fps
Color space                      : YUV
Chroma subsampling               : 4:2:0
Bit depth                        : 8 bits
Scan type                        : Progressive
Bits/(Pixel*Frame)               : 0.169
Stream size                      : 7.24 GiB (79%)
Title                            : x264 1080p @ 8.4 Mbps
Writing library                  : x264 core 120 r2164 da19765
Encoding settings                : cabac=1 / ref=4 / deblock=1:0:0 / analyse=0x3:0x113 / me=umh / subme=8 / psy=1 / psy_rd=1.00:0.00 / mixed_ref=1 / me_range=16 / chroma_me=1 / trellis=1 / 8x8dct=1 / cqm=0 / deadzone=21,11 / fast_pskip=1 / chroma_qp_offset=-2 / threads=12 / sliced_threads=0 / nr=0 / decimate=1 / interlaced=0 / bluray_compat=0 / constrained_intra=0 / bframes=3 / b_pyramid=2 / b_adapt=2 / b_bias=0 / direct=3 / weightb=1 / open_gop=0 / weightp=2 / keyint=240 / keyint_min=24 / scenecut=40 / intra_refresh=0 / rc_lookahead=50 / rc=2pass / mbtree=1 / bitrate=8399 / ratetol=1.0 / qcomp=0.60 / qpmin=0 / qpmax=69 / qpstep=4 / cplxblur=20.0 / qblur=0.5 / ip_ratio=1.40 / aq=1:1.00
Language                         : English

Audio #1
ID                               : 2
Format                           : DTS
Format/Info                      : Digital Theater Systems
Codec ID                         : A_DTS
Duration                         : 2h 6mn
Bit rate mode                    : Constant
Bit rate                         : 1 510 Kbps
Channel(s)                       : 6 channels
Channel positions                : Front: L C R, Side: L R, LFE
Sampling rate                    : 48.0 KHz
Bit depth                        : 24 bits
Compression mode                 : Lossy
Stream size                      : 1.33 GiB (15%)
Title                            : DTS 5.1 @ 1.5 Mbps (DTS-MA core)
Language                         : English

Audio #2
ID                               : 3
Format                           : AC-3
Format/Info                      : Audio Coding 3
Mode extension                   : CM (complete main)
Codec ID                         : A_AC3
Duration                         : 2h 6mn
Bit rate mode                    : Constant
Bit rate                         : 448 Kbps
Channel(s)                       : 6 channels
Channel positions                : Front: L C R, Side: L R, LFE
Sampling rate                    : 48.0 KHz
Bit depth                        : 16 bits
Compression mode                 : Lossy
Stream size                      : 405 MiB (4%)
Title                            : AC3 5.1 @ 448 kbps
Language                         : French

Text
ID                               : 4
Format                           : VobSub
Muxing mode                      : zlib
Codec ID                         : S_VOBSUB
Codec ID/Info                    : The same subtitle format used on DVDs
Title                            : Full
Language                         : French

Menu
00:00:00.000                     : en:Chapter01
00:09:35.533                     : en:Chapter02
00:17:20.664                     : en:Chapter03
00:23:32.911                     : en:Chapter04
00:30:34.540                     : en:Chapter05
00:38:26.262                     : en:Chapter06
00:47:36.269                     : en:Chapter07
00:55:37.543                     : en:Chapter08
01:03:43.695                     : en:Chapter09
01:12:46.862                     : en:Chapter10
01:19:59.168                     : en:Chapter11
01:27:10.100                     : en:Chapter12
01:33:03.494                     : en:Chapter13
01:42:41.279                     : en:Chapter14
01:53:47.779                     : en:Chapter15
01:59:58.440                     : en:Chapter16