Midnight Club (1933)
http://www.imdb.com/title/tt0024333/
George Raft

Source                           : Unknown (NMR)


Format                           : MPEG-4
Format profile                   : Base Media
Codec ID                         : isom
File size                        : 543 MiB
Duration                         : 1h 6mn

Video                            : B&W
Format                           : AVC
Format/Info                      : Advanced Video Codec
Format profile                   : High@L3.0
Format settings, CABAC           : Yes
Format settings, ReFrames        : 3 frames
Codec ID                         : avc1
Codec ID/Info                    : Advanced Video Coding
Duration                         : 1h 6mn
Bit rate                         : 1 000 Kbps
Maximum bit rate                 : 1 988 Kbps
Width                            : 704 pixels
Height                           : 480 pixels
Display aspect ratio             : 4:3
Original display aspect ratio    : 4:3
Frame rate mode                  : Constant
Frame rate                       : 23.976 fps
Standard                         : NTSC
Color space                      : YUV
Chroma subsampling               : 4:2:0
Bit depth                        : 8 bits
Scan type                        : Progressive
Bits/(Pixel*Frame)               : 0.123
Stream size                      : 478 MiB (88%)
Writing library                  : x264 core 65 r1042bm 5df2a71
Encoding settings                : cabac=1 / ref=3 / deblock=1:0:0 / analyse=0x3:0x133 / me=umh / subme=7 / psy_rd=0.0:0.0 / mixed_ref=1 / me_range=16 / chroma_me=1 / trellis=1 / 8x8dct=1 / cqm=0 / deadzone=21,11 / chroma_qp_offset=0 / threads=1 / thread_queue=1 / nr=0 / decimate=1 / mbaff=0 / bframes=3 / b_pyramid=1 / b_adapt=1 / b_bias=0 / direct=3 / wpredb=1 / keyint=250 / keyint_min=25 / scenecut=40 / rc=2pass / bitrate=1000 / ratetol=1.0 / qcomp=0.60 / qpmin=10 / qpmax=51 / qpstep=4 / cplxblur=20.0 / qblur=0.5 / ip_ratio=1.40 / pb_ratio=1.30 / aq=1:1.00:0:10.00
Encoded date                     : UTC 2008-12-02 09:27:25
Tagged date                      : UTC 2008-12-02 09:28:43

Audio                            : English
Format                           : AAC
Format/Info                      : Advanced Audio Codec
Format profile                   : LC
Codec ID                         : 40
Duration                         : 1h 6mn
Bit rate mode                    : Variable
Bit rate                         : 132 Kbps
Maximum bit rate                 : 137 Kbps
Channel(s)                       : 2 channels
Channel positions                : Front: L R
Sampling rate                    : 48.0 KHz
Compression mode                 : Lossy
Stream size                      : 62.8 MiB (12%)
Encoded date                     : UTC 2008-12-02 09:28:19
Tagged date                      : UTC 2008-12-02 09:28:43