Fate.Stay.Night.Unlimited.Blade.Works.2010.German.DTS.DL.1080p.BluRay.x264-LeetHD

Jahr: 2010
Genre: Zeichentrick | Action | Drama | Fantasy
Sprache: Deutsch DTS | Japanisch DTS
LΣnge: 101 Min
Bitrate: 11.9 Mbps
Format: Matroska
Gr÷▀e: 8.41 GiB

http://www.imdb.de/title/tt1587156/


Beschreibung:

Eigentlich ist Shiro Emiya ein ganz einfacher Schⁿler, der û ohne gro▀ auf sich aufmerksam zu machen û sein bescheidenes Leben lebt. Eines Nachts soll sich seine Leben jedoch von Grund auf Σndern. Er wird von einem seltsamen Wesen heimgesucht und findet sich im nΣchsten Moment als Teilnehmer einer epischen Schlacht wieder. In dieser Schlacht treten zwei mΣchtige Krieger mit magischen KrΣften gegeneinander an. Bei dieser Schlacht geht es um den Heiligen Gral. Der Gewinner erhΣlt das Artefakt, das ihm jeden Wunsch erfⁿllen kann. Doch welche Rolle spielt Shiro in diesem Krieg?



Format                           : Matroska
Format version                   : Version 2
File size                        : 8.41 GiB
Duration                         : 1h 41mn
Overall bit rate                 : 11.9 Mbps
Encoded date                     : UTC 2012-03-03 19:52:34
Writing application              : mkvmerge v5.2.1 ('A Far Off Place') built on Jan  2 2012 23:21:10
Writing library                  : libebml v1.2.3 + libmatroska v1.3.0

Video
ID                               : 1
Format                           : AVC
Format/Info                      : Advanced Video Codec
Format profile                   : High@L4.1
Format settings, CABAC           : Yes
Format settings, ReFrames        : 4 frames
Codec ID                         : V_MPEG4/ISO/AVC
Duration                         : 1h 41mn
Bit rate                         : 8 855 Kbps
Width                            : 1 920 pixels
Height                           : 1 080 pixels
Display aspect ratio             : 16:9
Frame rate                       : 25.000 fps
Color space                      : YUV
Chroma subsampling               : 4:2:0
Bit depth                        : 8 bits
Scan type                        : Progressive
Bits/(Pixel*Frame)               : 0.171
Stream size                      : 6.10 GiB (73%)
Writing library                  : x264 core 116 r2074 2641b9e
Encoding settings                : cabac=1 / ref=4 / deblock=1:-1:-1 / analyse=0x3:0x133 / me=umh / subme=8 / psy=1 / psy_rd=0.90:0.05 / mixed_ref=1 / me_range=32 / chroma_me=1 / trellis=2 / 8x8dct=1 / cqm=0 / deadzone=21,11 / fast_pskip=0 / chroma_qp_offset=-3 / threads=12 / sliced_threads=0 / nr=0 / decimate=1 / interlaced=0 / bluray_compat=0 / constrained_intra=0 / bframes=3 / b_pyramid=2 / b_adapt=2 / b_bias=0 / direct=3 / weightb=1 / open_gop=0 / weightp=2 / keyint=250 / keyint_min=25 / scenecut=40 / intra_refresh=0 / rc_lookahead=40 / rc=2pass / mbtree=1 / bitrate=8855 / ratetol=1.0 / qcomp=0.60 / qpmin=0 / qpmax=69 / qpstep=4 / cplxblur=20.0 / qblur=0.5 / ip_ratio=1.40 / aq=1:0.00
Language                         : English

Audio #1
ID                               : 2
Format                           : DTS
Format/Info                      : Digital Theater Systems
Codec ID                         : A_DTS
Duration                         : 1h 41mn
Bit rate mode                    : Constant
Bit rate                         : 1 510 Kbps
Channel(s)                       : 6 channels
Channel positions                : Front: L C R, Side: L R, LFE
Sampling rate                    : 48.0 KHz
Bit depth                        : 16 bits
Compression mode                 : Lossy
Stream size                      : 1.07 GiB (13%)
Language                         : German

Audio #2
ID                               : 3
Format                           : DTS
Format/Info                      : Digital Theater Systems
Codec ID                         : A_DTS
Duration                         : 1h 41mn
Bit rate mode                    : Constant
Bit rate                         : 1 510 Kbps
Channel(s)                       : 6 channels
Channel positions                : Front: L C R, Side: L R, LFE
Sampling rate                    : 48.0 KHz
Bit depth                        : 16 bits
Compression mode                 : Lossy
Stream size                      : 1.07 GiB (13%)
Language                         : English

Text #1
ID                               : 4
Format                           : VobSub
Muxing mode                      : zlib
Codec ID                         : S_VOBSUB
Codec ID/Info                    : The same subtitle format used on DVDs
Title                            : Forced VobSubs
Language                         : German

Text #2
ID                               : 5
Format                           : VobSub
Muxing mode                      : zlib
Codec ID                         : S_VOBSUB
Codec ID/Info                    : The same subtitle format used on DVDs
Title                            : VobSubs
Language                         : German

Menu
00:00:00.000                     : :Chapter 01
00:06:14.599                     : :Chapter 02
00:13:47.280                     : :Chapter 03
00:22:25.280                     : :Chapter 04
00:31:51.640                     : :Chapter 05
00:40:58.520                     : :Chapter 06
00:48:41.480                     : :Chapter 07
00:58:20.560                     : :Chapter 08
01:09:29.000                     : :Chapter 09
01:19:06.600                     : :Chapter 10
01:27:56.840                     : :Chapter 11
01:37:32.800                     : :Chapter 12