Street.Fighter.II.The.Animated.Movie.1994.UNRATED.DVDrip.x264.AC3.mkv
---------------------------------------------------------------------


FILE:
----
Format                                   : Matroska
File size                                : 679 MiB
Duration                                 : 1hr 38min 24sec
Overall bit rate                         : 965 Kbps


VIDEO:
-----
Format                                   : AVC
Duration                                 : 1h 38mn
Bit rate                                 : 753 Kbps
Width                                    : 720 pixels
Height                                   : 400 pixels
Display aspect ratio                     : 16:9
Frame rate mode                          : Variable
Frame rate                               : 25.000 fps
Scan type                                : Progressive
Stream size                              : 530 MiB (78%)


AUDIO:
-----
Format                                   : AC-3
Duration                                 : 1h 38mn
Channel(s)                               : 6 channels
Channel positions                        : Front: L C R, Side: L R, LFE
Sampling rate                            : 48.0 KHz
Bit depth                                : 16 bits
Stream size                              : 135 MiB (20%)
Language                                 : English


SUBS:
----
Danish, English, Finnish, Norwegian, Swedish, Portuguese