General
ID                                       : 1 (0x1)
Complete name                            : Akta.Manniskor.S01E08.SWEDISH.720p.HDTV.H.264-ToK.ts
Format                                   : MPEG-TS
File size                                : 4.74 GiB
Duration                                 : 58mn 4s
Overall bit rate mode                    : Variable
Overall bit rate                         : 11.7 Mbps

Video
ID                                       : 48 (0x30)
Menu ID                                  : 1 (0x1)
Format                                   : AVC
Format/Info                              : Advanced Video Codec
Format profile                           : Main@L4.0
Format settings, CABAC                   : Yes
Format settings, ReFrames                : 4 frames
Codec ID                                 : 27
Duration                                 : 58mn 4s
Bit rate mode                            : Variable
Bit rate                                 : 10.7 Mbps
Maximum bit rate                         : 16.4 Mbps
Width                                    : 1 280 pixels
Height                                   : 720 pixels
Display aspect ratio                     : 16:9
Frame rate                               : 50.000 fps
Color space                              : YUV
Chroma subsampling                       : 4:2:0
Bit depth                                : 8 bits
Scan type                                : Progressive
Bits/(Pixel*Frame)                       : 0.231
Stream size                              : 4.32 GiB (91%)
Color primaries                          : BT.709-5, BT.1361, IEC 61966-2-4, SMPTE RP177
Transfer characteristics                 : BT.709-5, BT.1361
Matrix coefficients                      : BT.709-5, BT.1361, IEC 61966-2-4 709, SMPTE RP177

Audio
ID                                       : 65 (0x41)
Menu ID                                  : 1 (0x1)
Format                                   : AC-3
Format/Info                              : Audio Coding 3
Mode extension                           : CM (complete main)
Codec ID                                 : 6
Duration                                 : 58mn 4s
Bit rate mode                            : Constant
Bit rate                                 : 448 Kbps
Channel(s)                               : 6 channels
Channel positions                        : Front: L C R, Side: L R, LFE
Sampling rate                            : 48.0 KHz
Bit depth                                : 16 bits
Compression mode                         : Lossy
Stream size                              : 186 MiB (4%)
Language                                 : Swedish




MPEG2Repair: Akta.Manniskor.S01E08.SWEDISH.720p.HDTV.H.264-ToK.ts


Sequence Frame 174207(0-X) / Time 0:57:41 :
Info: End of H.264 sequence

Sequence Summary:

File Size Processed: 4.74 GB, Play Time: 00h:58m:04s
50.00 FPS (Average), 10.89 Mbps (Average).
AC3 Audio: 3/2 Channels (L, C, R, SL, SR) + LFE, 48.0 kHz, 448 kbps.
Dialog Normalization: -31.0 dB, Center Mix Level: -3.0 dB, Surround Mix Level: -3.0 dB
0 of 108878 audio frames found with errors.
0.000000 seconds of audio timestamp gaps.

End of Log