[IMG]http://img513.imageshack.us/img513/8494/mi4t.jpg[/IMG]
[code]
Mission.Impossible.Ghost.Protocol.2011.DVDSCR.XViD.AC3-26K

Imdb:
http://www.imdb.com/title/tt1229238/

Plot:
The IMF is shut down when it's implicated in the bombing of the Kremlin, causing Ethan Hunt and his new team to go rogue to clear their organization's name.

Sources:
INSPIRAL

Notes:
SUBS WHEN NEEDED.. ENJOY. LAST ENCODE FOR THIS MOVIE UNTIL RETAIL.. SO TAKE IT OR LEAVE IT.!

Greetz:
Xtreme Encode|FYA|ILLUMANTI|CM8|RX|VISION|HDSCENE|NIGHTMAREZ|xTriLL|DTRG|CRYS|REMIXHD|BIDA|RX|REFILL|INSPiRAL|SIC|HOPE|Anonymous|GooN|P76|MIRAGE|ESCA

To all the people who have helped me :P you know who you are

Anything to offer email us @: 26k@hushmail.me

Video
ID                                       : 0
Format                                   : MPEG-4 Visual
Format profile                           : Advanced Simple@L5
Format settings, BVOP                    : 2
Format settings, QPel                    : No
Format settings, GMC                     : No warppoints
Format settings, Matrix                  : Default (H.263)
Codec ID                                 : XVID
Codec ID/Hint                            : XviD
Duration                                 : 2h 12mn
Bit rate                                 : 1 500 Kbps
Width                                    : 720 pixels
Height                                   : 400 pixels
Display aspect ratio                     : 16:9
Frame rate                               : 23.976 fps
Color space                              : YUV
Chroma subsampling                       : 4:2:0
Bit depth                                : 8 bits
Scan type                                : Progressive
Compression mode                         : Lossy
Bits/(Pixel*Frame)                       : 0.217
Stream size                              : 1.39 GiB (86%)
Writing library                          : XviD 64

Audio
ID                                       : 1
Format                                   : AC-3
Format/Info                              : Audio Coding 3
Mode extension                           : CM (complete main)
Codec ID                                 : 2000
Duration                                 : 2h 12mn
Source duration                          : 2h 12mn
Bit rate mode                            : Constant
Bit rate                                 : 224 Kbps
Channel(s)                               : 2 channels
Channel positions                        : Front: L R
Sampling rate                            : 48.0 KHz
Bit depth                                : 16 bits
Compression mode                         : Lossy
Stream size                              : 213 MiB (13%)
Alignment                                : Aligned on interleaves
Interleave, duration                     : 32 ms (0.77 video frame)


[/code]
Screens:
[IMG]http://i.imgur.com/J4lgo.png[/IMG]
[IMG]http://i.imgur.com/39li1.png[/IMG]
[IMG]http://i.imgur.com/HQTzn.png[/IMG]
[IMG]http://img441.imageshack.us/img441/3929/vlcsnap2012032123h42m28.png[/IMG]
[IMG]http://img826.imageshack.us/img826/6353/vlcsnap2012032123h42m16.png[/IMG]
[IMG]http://img831.imageshack.us/img831/4959/vlcsnap2012032123h42m21.png[/IMG]

[img]http://img851.imageshack.us/img851/5503/26ks.jpg[/img]
Thank you smallz for banner!