______  _   _  _____ ______  _____  _____ 
                          | ___ \| | | ||  _  || ___ \|  _  |/  ___|
                          | |_/ /| |_| || | | || |_/ /| | | |\ `--. 
                          |  __/ |  _  || | | || ___ \| | | | `--. \
                          | |    | | | |\ \_/ /| |_/ /\ \_/ //\__/ /
                          \_|    \_| |_/ \___/ \____/  \___/ \____/ 
 
                              Proudly presents
   ██▄▄▄▄▄▄▄▄▄▄▄▄▄▄▄▄▄▄▄▄▄▄▄▄▄▄▄▄▄▄▄▄▄▄▄▄▄▄▄▄▄▄▄▄▄▄▄▄▄▄▄▄▄▄▄▄▄▄▄▄▄▄▄▄▄▄▄▄▄██
   █     The.Two.Loves.Of.Anthony.Trollope.2004.STV.DVDRip.XviD-PHOBOS     █
   █                                                                       █
   █   Release Date .....: 05/Apr/2012                                     █
   █   DVD RLS Date .....: 25/Jan/2005                                     █
   █   Runtime ..........: 59:40                                           █
   █   Language .........: English                                         █
   █   Subs .............: None                                            █
   █   URL ..............: http://www.imdb.com/title/tt0409405/            █
   █   File Size ........: 577,079,136 bytes                               █
   █                                                                       █
   ██▄▄▄▄▄▄▄▄▄▄▄▄▄▄▄▄▄▄▄▄▄▄▄▄▄▄▄▄   Summary   ▄▄▄▄▄▄▄▄▄▄▄▄▄▄▄▄▄▄▄▄▄▄▄▄▄▄▄▄██
   █                                                                       █
   █   How did Anthony Trollope, master of the English novel of manners,   █
   █   achieve his prodigious output, and how did the loves of his life -  █
   █   his wife, Rose, and a young American named Kate Field - influence   █
   █   his writing?                                                        █
   █                                                                       █
   █   This illuminating Trollope biography reveals the inner man through  █
   █   reenactments of milestone moments, film clips from He Knew He Was   █
   █   Right and Barchester Towers, and dramatized readings from such      █
   █   works as Can You Forgive Her?, Castle Richmond, and An              █
   █   Autobiography, as well as from intimate correspondence.             █
   █                                                                       █
   ██▄▄▄▄▄▄▄▄▄▄▄▄▄▄▄▄▄▄▄▄▄▄▄▄▄▄▄▄  Tech Info  ▄▄▄▄▄▄▄▄▄▄▄▄▄▄▄▄▄▄▄▄▄▄▄▄▄▄▄▄██
   █                                                                       █
   █   Video                                                               █
   █   ID                                       : 0                        █
   █   Format                                   : MPEG-4 Visual            █
   █   Format profile                           : Advanced Simple@L5       █
   █   Format settings, BVOP                    : 2                        █
   █   Format settings, QPel                    : No                       █
   █   Format settings, GMC                     : No warppoints            █
   █   Format settings, Matrix                  : Default (H.263)          █
   █   Codec ID                                 : XVID                     █
   █   Codec ID/Hint                            : XviD                     █
   █   Duration                                 : 59mn 40s                 █
   █   Bit rate                                 : 1 156 Kbps               █
   █   Width                                    : 640 pixels               █
   █   Height                                   : 352 pixels               █
   █   Display aspect ratio                     : 16:9                     █
   █   Frame rate                               : 25.000 fps               █
   █   Color space                              : YUV                      █
   █   Chroma subsampling                       : 4:2:0                    █
   █   Bit depth                                : 8 bits                   █
   █   Scan type                                : Progressive              █
   █   Compression mode                         : Lossy                    █
   █   Bits/(Pixel*Frame)                       : 0.205                    █
   █   Stream size                              : 494 MiB (90%)            █
   █   Writing library                          : XviD 64                  █
   █                                                                       █
   █   Audio                                                               █
   █   ID                                       : 1                        █
   █   Format                                   : MPEG Audio               █
   █   Format version                           : Version 1                █
   █   Format profile                           : Layer 3                  █
   █   Mode                                     : Joint stereo             █
   █   Mode extension                           : MS Stereo                █
   █   Codec ID                                 : 55                       █
   █   Codec ID/Hint                            : MP3                      █
   █   Duration                                 : 59mn 40s                 █
   █   Bit rate mode                            : Variable                 █
   █   Bit rate                                 : 120 Kbps                 █
   █   Nominal bit rate                         : 128 Kbps                 █
   █   Channel(s)                               : 2 channels               █
   █   Sampling rate                            : 48.0 KHz                 █
   █   Compression mode                         : Lossy                    █
   █   Stream size                              : 51.3 MiB (9%)            █
   █   Alignment                                : Aligned on interleaves   █
   █   Interleave, duration                     : 24 ms (0.60 video frame) █
   █   Interleave, preload duration             : 153 ms                   █
   █   Writing library                          : LAME3.99r                █
   █                                                                       █
   ██▄▄▄▄▄▄▄▄▄▄▄▄▄▄▄▄▄▄▄▄▄▄▄▄▄▄▄   Group Info   ▄▄▄▄▄▄▄▄▄▄▄▄▄▄▄▄▄▄▄▄▄▄▄▄▄▄██
   █                                                                       █
   █   Our mission is to provide the scene with decent quality rips of     █
   █   Movie classics.                                                     █
   █   Greets fly out to everyone that helped us, you know who you are     █
   █   guys.                                                               █
   █   Looking for decent affil sites (no ovh plz) and rippers/cappers.    █
   █   Ask around for us or write to deimostv@hush.ai                      █
   █                                                                       █
   ██▄▄▄▄▄▄▄▄▄▄▄▄▄▄▄▄▄▄▄▄▄▄▄▄▄▄▄▄▄▄▄▄▄▄▄▄▄▄▄▄▄▄▄▄▄▄▄▄▄▄▄▄▄▄▄▄▄▄▄▄▄▄▄▄▄▄▄▄▄██