dBpoweramp Release 13.5 Digital Audio Extraction Log from zaterdag 31 maart 2012 5:38

Drive & Settings
----------------

Ripping with drive 'H:   [TSSTcorp - CDDVDW SH-S202N ]',  Drive offset: 6,  Overread Lead-in/out: No
AccurateRip: Active,  Using C2: No,  Cache: None,  FUA Cache Invalidate: No
Pass 1 Drive Speed: Max,  Pass 2 Drive Speed: Max
Ultra::  Vary Drive Speed: No,  Min Passes: 2,  Max Passes: 4,  Finish After Clean Passes: 2
Bad Sector Re-rip::  Drive Speed: Max,  Maximum Re-reads: 34

Encoder: mp3 (Lame) -b 320
DSP Effects / Actions: -dspeffect1="ReplayGain=-albummode={qt}0{qt}" -dspeffect2="HDCD="

Extraction Log
--------------

Track 1:  Ripped LBA 0 to 37741 (8:23) in 2:06. Filename: M:\X Doorgaan\Rippen\2000\Electronic\Dance\Tom Trago\Voyage Direct\Tom Trago -01- Passion.mp3
  Secure  [Pass 1 & 2, Ultra 1 to 2]
  CRC32: E87F6018     AccurateRip CRC: 3D9B16EA     [DiscID: 008-000e2e8e-005dca1f-590b3208-1]

Track 2:  Ripped LBA 37741 to 56181 (4:05) in 0:51. Filename: M:\X Doorgaan\Rippen\2000\Electronic\Dance\Tom Trago\Voyage Direct\Tom Trago -02- Use Me.mp3
  Secure  [Pass 1 & 2, Ultra 1 to 2]
  CRC32: B15FE8A6     AccurateRip CRC: 5CE3E578     [DiscID: 008-000e2e8e-005dca1f-590b3208-2]

Track 3:  Ripped LBA 56181 to 77269 (4:41) in 0:52. Filename: M:\X Doorgaan\Rippen\2000\Electronic\Dance\Tom Trago\Voyage Direct\Tom Trago -03- Live with the BBQ.mp3
  Secure  [Pass 1 & 2, Ultra 1 to 2]
  CRC32: CC060945     AccurateRip CRC: 757D0D4A     [DiscID: 008-000e2e8e-005dca1f-590b3208-3]

Track 4:  Ripped LBA 77269 to 97855 (4:34) in 0:48. Filename: M:\X Doorgaan\Rippen\2000\Electronic\Dance\Tom Trago\Voyage Direct\Tom Trago -04- Lost in the streets of NYC.mp3
  Secure  [Pass 1 & 2, Ultra 1 to 2]
  CRC32: A227AB47     AccurateRip CRC: 1231A605     [DiscID: 008-000e2e8e-005dca1f-590b3208-4]

Track 5:  Ripped LBA 97855 to 122177 (5:24) in 0:51. Filename: M:\X Doorgaan\Rippen\2000\Electronic\Dance\Tom Trago\Voyage Direct\Tom Trago -05- Voyage Direct.mp3
  Secure  [Pass 1 & 2, Ultra 1 to 2]
  CRC32: 06AEC6B4     AccurateRip CRC: 325CDC99     [DiscID: 008-000e2e8e-005dca1f-590b3208-5]

Track 6:  Ripped LBA 122177 to 149439 (6:03) in 0:54. Filename: M:\X Doorgaan\Rippen\2000\Electronic\Dance\Tom Trago\Voyage Direct\Tom Trago -06- Brothers of String.mp3
  Secure  [Pass 1 & 2, Ultra 1 to 2]
  CRC32: 9759C517     AccurateRip CRC: C4ED9B87     [DiscID: 008-000e2e8e-005dca1f-590b3208-6]

Track 7:  Ripped LBA 149439 to 173761 (5:24) in 0:54. Filename: M:\X Doorgaan\Rippen\2000\Electronic\Dance\Tom Trago\Voyage Direct\Tom Trago -07- The New 3000.mp3
  Secure  [Pass 1 & 2, Ultra 1 to 2]
  CRC32: ED5EA4BA     AccurateRip CRC: 8E68CD4D     [DiscID: 008-000e2e8e-005dca1f-590b3208-7]

Track 8:  Ripped LBA 173761 to 214999 (9:09) in 1:21. Filename: M:\X Doorgaan\Rippen\2000\Electronic\Dance\Tom Trago\Voyage Direct\Tom Trago -08- On The Side.mp3
  Secure  [Pass 1 & 2, Ultra 1 to 2]
  CRC32: 8F6C60BD     AccurateRip CRC: C75DB9FA     [DiscID: 008-000e2e8e-005dca1f-590b3208-8]

--------------

8 Tracks Ripped Securely