▄██████████████████████████████████████████████████████████████████████████████████████████▄     
 ██████████████████████████████████████████████████████████████████████████████████████████████    
 ██████████████████████████████████████████████████████████████████████████████████████████████    
 █ ▄▄▄▄▄▄▄▄▄▄▄▄▄▄▄▄▄▄▄▄▄▄▄▄▄▄▄▄▄▄▄▄▄▄▄▄▄▄▄▄▄▄▄▄▄▄▄▄▄▄▄▄▄▄▄▄▄▄▄▄▄▄▄▄▄▄▄▄▄▄▄▄▄▄▄▄▄▄▄▄▄▄▄▄▄▄▄▄▄▄ █    
 █ ██████████████████████████████████████████████████████████████████████████████████████████ █    
 ▄▄██████████████████████████████████████████████████████████████████████████████████████████▄▄    
 ██████████████████████████████████████████████████████████████████████████████████████████████    
 █████████░░░░░░░░░░░░░░░░████                                    ████░░░░░░░░░░░░░░░░█████████    
 ████████░░░░░░░░░░░░░░░░░████                                    ████░░░░░░░░░░░░░░░░░████████    
 ███████░░░░░░░░░░░░░░░░░░████               EXVID                ████░░░░░░░░░░░░░░░░░░███████    
 ███████░░░░░░░░░░░░░░████████                                    ████████░░░░░░░░░░░░░░███████    
 ███████░░░░░░░░░░░░░█████████  ▀▀▀▀▀▀▀▀▀▀▀▀▀▀▀▀▀▀▀▀▀▀▀▀▀▀▀▀▀▀▀▀  █████████░░░░░░░░░░░░░███████    
 ██████░░░░░░░░░░░░░██████████                                    ██████████░░░░░░░░░░░░░██████    
 ██████░░░░░░░░░░░░███████████        Filled the Archives         ███████████░░░░░░░░░░░░██████    
 ██████░░░░░░░░░░░░███████████                                    ███████████░░░░░░░░░░░░██████    
 ██████░░░░░░░░░░░░███████████  ▀▀▀▀▀▀▀▀▀▀▀▀▀▀▀▀▀▀▀▀▀▀▀▀▀▀▀▀▀▀▀▀  ███████████░░░░░░░░░░░░██████    
 ██████░░░░░░░░░░░░███████████                                    ███████████░░░░░░░░░░░░██████    
 ██████░░░░░░░░░░░░███████████               With:                ███████████░░░░░░░░░░░░██████    
 ██████░░░░░░░░░░░░███████████                                    ███████████░░░░░░░░░░░░██████    
 ██████░░░░░░░░░░░░███████████  ▀▀▀▀▀▀▀▀▀▀▀▀▀▀▀▀▀▀▀▀▀▀▀▀▀▀▀▀▀▀▀▀  ███████████░░░░░░░░░░░░██████    
 ███████░░░░░░░░░░░░██████████                                    ██████████░░░░░░░░░░░░███████    
 ███████░░░░░░░░░░░░░█████████  ▓ ▓▓▓▓                            █████████░░░░░░░░░░░░░███████    
 ███████░░░░░░░░░░░░░░████████  ▓▓ ▓▓▓ E240                       ████████░░░░░░░░░░░░░░███████    
 ███████░░░░░░░░░░░░░░░░░░████  ▓▓▓ ▓▓                            ████░░░░░░░░░░░░░░░░░░███████    
 ████████░░░░░░░░░░░░░░░░░████  ▓▓▓▓ ▓ SP               (C) 2009  ████░░░░░░░░░░░░░░░░░████████    
 █████████░░░░░░░░░░░░░░░░████                                    ████░░░░░░░░░░░░░░░░█████████    
 ██████████████████████████████████████████████████████████████████████████████████████████████    
 ██████████████████████████████████████████████████████████████████████████████████████████████    
 ██████████████████████████████████████████████████████████████████████████████████████████████    
 ████▀███████                                                                             █████    
 ████▄███████                                                                              ████    
 ████████████               Lawman.1971.iNTERNAL.DVDRip.XviD-EXViDiNT                       ███    
 ████████████                                                                              ████    
 ████████████                                                                             █████    
 ██████████████████████████████████████████████████████████████████████████████████████████████    
                                                                                               
EXViD aims to iNTERNAL those releases which have been lost in the archives.
EXViD aims to PRE non-internal releases which have poor sources and are likely skipped by others.

http://www.imdb.com/title/tt0067333/
Subtitles: English CC
Date: 2012.04

Director: Michael Winner

Genre: Western

Plot:
A lawman from Bannock arrives in Sabbath to arrest all the cattlemen whose wild celebration
the year before resulted in the accidental death of an old man.

Cast:
Burt Lancaster	 ...	Bannock Marshal Jared Maddox
Robert Ryan	 ...	Sabbath Marshal Cotton Ryan
Lee J. Cobb	 ...	Vincent Bronson
Robert Duvall	 ...	Vernon Adams
Sheree North	 ...	Laura Shelby
Albert Salmi	 ...	Harvey Stenbaugh
Richard Jordan	 ...	Crowe Wheelwright
John McGiver	 ...	Sabbath Mayor Sam Bolden
Ralph Waite	 ...	Jack Dekker
John Beck	 ...	Jason Bronson
William Watson	 ...	Choctaw Lee (as William C. Watson)
Walter Brooke	 ...	Luther Harris
Robert Emhardt	 ...	Hersham
Charles Tyner	 ...	Minister
J.D. Cannon	 ...	Hurd Price

Stats:
Format                           : AVI
Format/Info                      : Audio Video Interleave
File size                        : 700 MiB
Duration                         : 1h 38mn
Overall bit rate                 : 992 Kbps
Writing application              : Nandub v1.0rc2
Writing library                  : Nandub build 1852/release

Video
ID                               : 0
Format                           : MPEG-4 Visual
Format profile                   : Advanced Simple@L5
Format settings, BVOP            : 2
Format settings, QPel            : No
Format settings, GMC             : No warppoints
Format settings, Matrix          : Default (H.263)
Codec ID                         : XVID
Codec ID/Hint                    : XviD
Duration                         : 1h 38mn
Bit rate                         : 906 Kbps
Width                            : 576 pixels
Height                           : 320 pixels
Display aspect ratio             : 16:9
Frame rate                       : 23.976 fps
Color space                      : YUV
Chroma subsampling               : 4:2:0
Bit depth                        : 8 bits
Scan type                        : Progressive
Compression mode                 : Lossy
Bits/(Pixel*Frame)               : 0.205
Stream size                      : 640 MiB (91%)
Writing library                  : XviD 64

Audio
ID                               : 1
Format                           : MPEG Audio
Format version                   : Version 1
Format profile                   : Layer 3
Codec ID                         : 55
Codec ID/Hint                    : MP3
Duration                         : 1h 38mn
Bit rate mode                    : Variable
Bit rate                         : 72.6 Kbps
Nominal bit rate                 : 80.0 Kbps
Channel(s)                       : 1 channel
Sampling rate                    : 48.0 KHz
Compression mode                 : Lossy
Stream size                      : 51.3 MiB (7%)
Alignment                        : Aligned on interleaves
Interleave, duration             : 24 ms (0.58 video frame)
Interleave, preload duration     : 515 ms
Writing library                  : LAME3.98r
Encoding settings                : -m m -V 4 -q 3 -lowpass 20.3 --abr 80




Release notes:
enjoy!

Looking for:
75TB+ Archives
DUTCH/FLEMiSH Archives
                                                                                                    
Greets: CRBS EPiSODE FiCO FLS iLS KLASSiGER LiPSYNC MADE NODLABS RUNNER SPRiNTER      
   
██████████████████████████████████████████████████████████████████████████████████████████████
                                                                    ASCII DONE BY XX^NFO 2oo9     
 

 	 		
RLS-Crc: 415243414445:42EECD90