Kommissar Winter 7


Der letzte Winter
Staffel 1: Episode 4
Krimiserie, Schweden 2010
Regie: Emiliano Goessens
Autor: Alexander S÷derberg




Gerda Hoffner ist noch nicht lange als Polizistin tΣtig, als sie mit ihrem Kollegen an einen ungew÷hnlichen Tatort eines Mordes gerufen wird: In seiner Wohnung entdeckte Martin Barkner mitten in der Nacht, dass seine Freundin Madeleine Holst mit einem Kissen erstickt wurde, wΣhrend er neben ihr schlief. ZunΣchst gerΣt der junge Mann selbst unter Verdacht. Doch dann wiederholen sich die Ereignisse wie in einem schlechten Traum: Wieder ist es Gerda Hoffner, die nur noch den Tod der jungen Frau im Bett ihres Freundes Erik Lentner feststellen kann. Die Mordkommission wird in die Ermittlungen involviert. Eigentlich befassen sich Kommissar Winter und sein Team gerade mit dem Mord an einem Immobilienmakler. Winters T÷chter hatten seine Leiche an einem Strand gefunden, an dem die Familie eigentlich ein Haus bauen wollte. Dies bleibt nicht die einzige Verwicklung des Falles in Winters Privatleben. Ausgerechnet an Weihnachten, dem Fest der Familie und Liebe, dringt jemand in das traute Heim des Kommissars ein und platziert ein PΣckchen unter dem Weihnachtsbaum. Selbst der toughe Fahnder fordert nach dem ╓ffnen sofort einen Wachschutz fⁿr seine Wohnung an ...



Kommissar Winter 8

Der letzte Winter
Staffel 1: Episode 4
Krimiserie, Schweden 2010
Regie: Emiliano Goessens
Autor: Alexander S÷derberg




Kommissar Winters Familie scheint zunehmend bedroht. Umso intensiver ermittelt der Familienvater, denn zum ersten Mal scheint er gro▀e Angst zu verspⁿren. Er st÷▀t auf eine Gemeinsamkeit zwischen den drei Morden: Sowohl der Immobilienmakler, also auch die Familien Lentner, Barkner und Holst besa▀en vor 18 Jahren Grund und Boden in Spanien. Als das Team diesen Hinweisen nachgeht, werden alte Wunden wieder aufgerissen. Was ist damals an der Costa del Sol vorgefallen? Wer k÷nnte Interesse an einem Racheakt haben? Auch die ambitionierte Gerda untersucht die Morde auf eigene Faust. Als sie das RΣtsel beinahe gel÷st hat, gerΣt sie in die Gewalt des HauptverdΣchtigen. Doch am Neujahrstag sorgt sich niemand um ihr Verschwinden: Sicher hat sie nur einen ⁿber den Durst getrunken, denken ihre Freunde und Kollegen. Die Angst von Kommissar Winter wΣchst indessen stetig. Als ein Foto seiner Tochter mit dem mutma▀lichen TΣter auftaucht, beschlie▀t er, eine Reise nach Spanien und in die Vergangenheit zu unternehmen. Und dort wird er auch schon erwartet ...


Magnus Krepper ("Erik Winter") - Peter Andersson ("Bertil Ringmar") - Amanda Ooms ("Angela Winter") - Sharon Dyall ("Aneta Djanali") - Jens HultΘn ("Fredrik Halders") - Malin CrΘpin ("Gerda Hoffner") - Jonatan Rodriguez ("Erik Lentner")
Dauer ~120 min.


http://www.arte.tv/de/6533534,CmC=6469194.html


General
Complete name                    : F:\Kommissarie Winter 7+8\Kommissarie Winter 7+8.divx
Format                           : DivX
Format/Info                      : Hack of AVI
File size                        : 1.09 GiB
Duration                         : 1h 56mn
Overall bit rate                 : 1 338 Kbps

Video
ID                               : 0
Format                           : MPEG-4 Visual
Format settings, BVOP            : 1
Format settings, QPel            : No
Format settings, GMC             : No warppoints
Format settings, Matrix          : Default (H.263)
Muxing mode                      : Packed bitstream
Codec ID                         : DX50
Codec ID/Hint                    : DivX 5
Duration                         : 1h 56mn
Bit rate                         : 1 201 Kbps
Width                            : 704 pixels
Height                           : 576 pixels
Display aspect ratio             : 16:9
Frame rate                       : 25.000 fps
Standard                         : PAL
Color space                      : YUV
Chroma subsampling               : 4:2:0
Bit depth                        : 8 bits
Scan type                        : Progressive
Compression mode                 : Lossy
Bits/(Pixel*Frame)               : 0.118
Stream size                      : 1 003 MiB (90%)
Title                            : Video
Writing library                  : DivX 6.6.1.4

Audio
ID                               : 1
Format                           : MPEG Audio
Format version                   : Version 1
Format profile                   : Layer 3
Codec ID                         : 55
Codec ID/Hint                    : MP3
Duration                         : 1h 56mn
Bit rate mode                    : Constant
Bit rate                         : 128 Kbps
Channel(s)                       : 2 channels
Sampling rate                    : 48.0 KHz
Compression mode                 : Lossy
Stream size                      : 107 MiB (10%)
Alignment                        : Split accross interleaves
Interleave, duration             : 40 ms (1.00 video frame)
Interleave, preload duration     : 500 ms
Title                            : Audio