Polizeiruf 110 - Die Gurkenk÷nigin

Staffel 1: Episode 328
TV-Krimi, Deutschland 2012
Regie: Ed Herzog
Autor: Wolfgang Stauch
Musik: Tamßs Kahane
Kamera: Torsten Breuer




Luise K÷nig (Susanne Lothar) leitet seit ⁿber 20 Jahren gemeinsam mit ihrem Mann Gⁿnther (Bernhard Schⁿtz) das Familienunternehmen 'Gurkenk÷nig'. Die K÷nigs produzieren die berⁿhmten Spreewaldgurken, das 'grⁿne Gold des Ostens'. Einen Tag vor Luises 50. Geburtstag kommt es in der Fabrik zu einem ▄bergriff auf die Firmenchefin: Luise K÷nig wird gefesselt und geknebelt - allem Anschein nach von einem Vampir. Polizeihauptmeister Krause (Horst Krause) kommt ihr in letzter Minute zu Hilfe und verhindert, dass der TΣter Fabrik und Fabrikantin in Brand setzt. Die Sache geht glimpflich aus, doch der Vampir flⁿchtet mit Krauses Dienstwaffe. Fⁿr Krause ist das ein schwerer Schlag. Kriminalhauptkommissarin Tamara Rusch (Sophie Rois), die an diesem Tag die Schwangerschaftsvertretung fⁿr Kriminalhauptkommissarin Olga Lenski antritt, und Krause ist klar, dass es sich bei dem Anschlag nicht um einen schlechten Scherz handelt, sondern um einen Mordversuch. Unangemessen scheint ihnen nur die Reaktion des Opfers. Luise zeigt sich von dem Vorfall ganz unbeeindruckt. Mit Galgenhumor und mΣ▀igem Interesse begegnet auch die Familie der Nachricht von dem Mordversuch. Alle Aufmerksamkeit richtet sich auf Luises bevorstehende Geburtstagsfeier. Die Σltere Tochter Anne (Lisa Wagner) hilft ihrer Mutter pflichtbewusst, die jⁿngere Steffi (Jennifer Ulrich) und ihr neuer Freund Maurice (Hannes Wegener) beschΣftigen sich mehr mit sich selbst, Gⁿnther K÷nig kⁿmmert sich um ein frisch erlegtes Wildschwein. Rusch und Krause aber sind ⁿberzeugt, dass Luise in Lebensgefahr ist. Gegen den Willen der Gastgeberin quartieren sich die Ermittler bei der Familie ein, um am nΣchsten Tag an den Feierlichkeiten teilzunehmen. Noch in der Nacht wird auf die schlafende Luise geschossen. Der Schuss verfehlt nur knapp sein Ziel. Das Fest verlΣuft anders als gedacht - denn es kommen nicht nur die geladenen GΣste... Rusch und Krause erleben einen ungew÷hnlichen Fall, der ihnen nicht viel Zeit zum Kennenlernen lΣsst. (im Ersten: 15.04.
Was der 'Tatort' fⁿr Westdeutschland war, war der 'Polizeiruf 110' fⁿr die ehemalige DDR. Aufgrund der hohen QualitΣt und Beliebtheit bei den Zuschauern ⁿberlebte das Format auch die Wiedervereinigung. Seitdem lΣuft die Krimiserie als gesamtdeutsche Ausstrahlung auch mit westdeutschen Kommissaren und Einsatzorten.




Sophie Rois ("Kriminalhauptkommissarin Tamara Rusch") - Horst Krause ("Polizeihauptmeister Krause") - Susanne Lothar ("Luise K÷nig") - Bernhard Schⁿtz ("Gⁿnther K÷nig") - Lisa Wagner ("Anne K÷nig") - Jennifer Ulrich ("Steffi K÷nig") - Klaus Manchen ("Fritz K÷nig") - Hannes Wegener ("Maurice")

Dauer ~90 min.



http://www.rbb-online.de/polizeiruf/polizeiruf_im_ersten/polizeiruf_110__die.html



General
Complete name                    : F:\Polizeiruf 110 - Die Gurkenk÷nigin\Polizeiruf 110 - Die Gurkenk÷nigin.divx
Format                           : DivX
Format/Info                      : Hack of AVI
File size                        : 1.03 GiB
Duration                         : 1h 28mn
Overall bit rate                 : 1 658 Kbps

Video
ID                               : 0
Format                           : MPEG-4 Visual
Format settings, BVOP            : 1
Format settings, QPel            : No
Format settings, GMC             : No warppoints
Format settings, Matrix          : Default (H.263)
Muxing mode                      : Packed bitstream
Codec ID                         : DX50
Codec ID/Hint                    : DivX 5
Duration                         : 1h 28mn
Bit rate                         : 1 200 Kbps
Width                            : 720 pixels
Height                           : 576 pixels
Display aspect ratio             : 16:9
Frame rate                       : 25.000 fps
Standard                         : PAL
Color space                      : YUV
Chroma subsampling               : 4:2:0
Bit depth                        : 8 bits
Scan type                        : Progressive
Compression mode                 : Lossy
Bits/(Pixel*Frame)               : 0.116
Stream size                      : 761 MiB (72%)
Title                            : Video
Writing library                  : DivX 6.6.1.4

Audio
ID                               : 1
Format                           : AC-3
Format/Info                      : Audio Coding 3
Mode extension                   : CM (complete main)
Codec ID                         : 2000
Duration                         : 1h 28mn
Bit rate mode                    : Constant
Bit rate                         : 448 Kbps
Channel(s)                       : 2 channels
Channel positions                : Front: L R
Sampling rate                    : 48.0 KHz
Bit depth                        : 16 bits
Compression mode                 : Lossy
Stream size                      : 284 MiB (27%)
Alignment                        : Split accross interleaves
Interleave, duration             : 40 ms (1.00 video frame)
Interleave, preload duration     : 500 ms
Title                            : Audio