dBpoweramp Release 13.5 Digital Audio Extraction Log from donderdag 19 april 2012 6:29

Drive & Settings
----------------

Ripping with drive 'G:   [PLEXTOR  - CD-R   PREMIUM2 ]',  Drive offset: 30,  Overread Lead-in/out: Yes
AccurateRip: Active,  Using C2: Yes,  Cache: 1173 KB,  FUA Cache Invalidate: Yes
Pass 1 Drive Speed: Max,  Pass 2 Drive Speed: Max
Ultra::  Vary Drive Speed: No,  Min Passes: 1,  Max Passes: 2,  Finish After Clean Passes: 1
Bad Sector Re-rip::  Drive Speed: Max,  Maximum Re-reads: 34

Encoder: Wave -compression="PCM"
DSP Effects / Actions: -dspeffect1="HDCD="

Extraction Log
--------------

Track 1:  Ripped LBA 32 to 3702 (0:48) in 0:02. Filename: F:\X Doorgaan\Rippen\90s\Electronic\Happy Hardcore\Dune\Dune\Dune -01- In The Beginning....wav
  AccurateRip: Accurate (confidence 62)     [Pass 1]
  CRC32: 326DFB79     AccurateRip CRC: 19AC25A9     [DiscID: 013-00183424-00fba472-9a0e210d-1]

Track 2:  Ripped LBA 3702 to 19695 (3:33) in 0:10. Filename: F:\X Doorgaan\Rippen\90s\Electronic\Happy Hardcore\Dune\Dune\Dune -02- Hardcore Vibes.wav
  AccurateRip: Accurate (confidence 61)     [Pass 1]
  CRC32: FBB42B27     AccurateRip CRC: 1A7B40DF     [DiscID: 013-00183424-00fba472-9a0e210d-2]

Track 3:  Ripped LBA 19695 to 38357 (4:08) in 0:10. Filename: F:\X Doorgaan\Rippen\90s\Electronic\Happy Hardcore\Dune\Dune\Dune -03- Just Another Dream.wav
  AccurateRip: Accurate (confidence 62)     [Pass 1]
  CRC32: DD77CDC2     AccurateRip CRC: 9E07DA2A     [DiscID: 013-00183424-00fba472-9a0e210d-3]

Track 4:  Ripped LBA 38357 to 60667 (4:57) in 0:12. Filename: F:\X Doorgaan\Rippen\90s\Electronic\Happy Hardcore\Dune\Dune\Dune -04- Future Is Now.wav
  AccurateRip: Accurate (confidence 62)     [Pass 1]
  CRC32: 8E537FFB     AccurateRip CRC: E202B387     [DiscID: 013-00183424-00fba472-9a0e210d-4]

Track 5:  Ripped LBA 60667 to 80540 (4:24) in 0:09. Filename: F:\X Doorgaan\Rippen\90s\Electronic\Happy Hardcore\Dune\Dune\Dune -05- Final Dream.wav
  AccurateRip: Accurate (confidence 60)     [Pass 1]
  CRC32: 3D93ED51     AccurateRip CRC: 3E2457A9     [DiscID: 013-00183424-00fba472-9a0e210d-5]

Track 6:  Ripped LBA 80540 to 101130 (4:34) in 0:09. Filename: F:\X Doorgaan\Rippen\90s\Electronic\Happy Hardcore\Dune\Dune\Dune -06- The Spice.wav
  AccurateRip: Accurate (confidence 62)     [Pass 1]
  CRC32: B599BEC5     AccurateRip CRC: 0302D495     [DiscID: 013-00183424-00fba472-9a0e210d-6]

Track 7:  Ripped LBA 101130 to 117090 (3:32) in 0:06. Filename: F:\X Doorgaan\Rippen\90s\Electronic\Happy Hardcore\Dune\Dune\Dune -07- Are You Ready To Fly.wav
  AccurateRip: Accurate (confidence 63)     [Pass 1]
  CRC32: 62C8B652     AccurateRip CRC: 6571CDEF     [DiscID: 013-00183424-00fba472-9a0e210d-7]

Track 8:  Ripped LBA 117090 to 136862 (4:23) in 0:08. Filename: F:\X Doorgaan\Rippen\90s\Electronic\Happy Hardcore\Dune\Dune\Dune -08- Can't Stop Raving.wav
  AccurateRip: Accurate (confidence 62)     [Pass 1]
  CRC32: 00CCFE97     AccurateRip CRC: 2E48B3DD     [DiscID: 013-00183424-00fba472-9a0e210d-8]

Track 9:  Ripped LBA 136862 to 157045 (4:29) in 0:08. Filename: F:\X Doorgaan\Rippen\90s\Electronic\Happy Hardcore\Dune\Dune\Dune -09- Up!.wav
  AccurateRip: Accurate (confidence 60)     [Pass 1]
  CRC32: 120AE71E     AccurateRip CRC: 2024F5DA     [DiscID: 013-00183424-00fba472-9a0e210d-9]

Track 10:  Ripped LBA 157045 to 179287 (4:56) in 0:08. Filename: F:\X Doorgaan\Rippen\90s\Electronic\Happy Hardcore\Dune\Dune\Dune -10- Generation Love.wav
  AccurateRip: Accurate (confidence 62)     [Pass 1]
  CRC32: 897D74DE     AccurateRip CRC: 997FD255     [DiscID: 013-00183424-00fba472-9a0e210d-10]

Track 11:  Ripped LBA 179287 to 198625 (4:17) in 0:07. Filename: F:\X Doorgaan\Rippen\90s\Electronic\Happy Hardcore\Dune\Dune\Dune -11- Positive Energy.wav
  AccurateRip: Accurate (confidence 61)     [Pass 1]
  CRC32: CFFAA89F     AccurateRip CRC: 1B5AB735     [DiscID: 013-00183424-00fba472-9a0e210d-11]

Track 12:  Ripped LBA 198625 to 221905 (5:10) in 0:08. Filename: F:\X Doorgaan\Rippen\90s\Electronic\Happy Hardcore\Dune\Dune\Dune -12- Make Sense.wav
  AccurateRip: Accurate (confidence 62)     [Pass 1]
  CRC32: 21291440     AccurateRip CRC: DE0C7FC1     [DiscID: 013-00183424-00fba472-9a0e210d-12]

Track 13:  Ripped LBA 221905 to 271275 (10:58) in 0:36. Filename: F:\X Doorgaan\Rippen\90s\Electronic\Happy Hardcore\Dune\Dune\Dune -13- ...In The End.wav
  Insecure  [Pass 1, Ultra 1 to 1, Re-Rip 154 Frames]
  Insecure  [Pass 1, Ultra 1 to 1, Re-Rip 154 Frames]
  ** Aborted: Have to ReRip 154 Frames, Re-Rip Limit Set to 100 Frames

--------------

13 Tracks Ripped: 12 Accurate, 1 Inaccurate