[AG]_Gundam_AGE_-_27_[720p][65C6CDB6].mkv 65C6CDB6 417986403bytes 2012-04-25@23:26.10
____________________________________________________________________________________________||||||||
for http://www.animeusenet.org and http://www.fanzub.com/ on alt.binaries.multimedia.anime.highspeed
			          )     *     (              )  
			   (   ( /(   (  `    )\ )        ( /(  
			   )\  )\())  )\))(  (()/(    (   )\()) 
			 (((_)((_)\  ((_)()\  /(_))   )\ ((_)\  
			 )\___  ((_) (_()((_)(_))_|_ ((_) _((_) 
			((/ __|/ _ \ |  \/  || |_ | | | || \| | 
			 | (__| (_) || |\/| || __|| |_| || .` | 
			  \___|\___/ |_|  |_||_|   \___/ |_|\_|
___________________________Powered bY Flexget, Transmission, Cksfv, Mediainfo, Yencee, Newsmangler !
-! Thanks the fansubs teams and nyaa, edwardK, minglong, bakabt, baka-updates, animsuki, tokyotosho!
-! More infos about the series and the teams available on http://anidb.net
-! Get NZB from http://www.fanzub.com/?q=&cat=anime if not available on http://www.animeusenet.org
-! To set up automatic downloading take a look at FlexGet, http://flexget.com/
-! If you want to chat, join us at irc://irc.irchighway.net/abmad,needkey  passkey: banter
-! Request group is alt.binaries.multimedia.anime.d
----------------------------------------------------------------------------------------------------
-! Mediainfo                     :
----------------------------------------------------------------------------------------------------
General
Unique ID                        : 216896404432270370975358005049701270642 (0xA32CBA5F08B2A1DABE55B97CBE598472)
Complete name                    : [AG]_Gundam_AGE_-_27_[720p][65C6CDB6].mkv
Format                           : Matroska
File size                        : 399 MiB
Duration                         : 24mn 29s
Overall bit rate                 : 2 275 Kbps
Encoded date                     : UTC 2012-04-25 13:20:23
Writing application              : mkvmerge v5.3.0 ('I could have danced') built on Feb  9 2012 10:38:07
Writing library                  : libebml v1.2.3 + libmatroska v1.3.0
Cover                            : Yes / Yes / Yes / Yes

Video
ID                               : 1
Format                           : AVC
Format/Info                      : Advanced Video Codec
Format profile                   : High@L4.1
Format settings, CABAC           : Yes
Format settings, ReFrames        : 8 frames
Format settings, GOP             : M=1, N=24
Codec ID                         : V_MPEG4/ISO/AVC
Duration                         : 24mn 29s
Bit rate mode                    : Variable
Bit rate                         : 1 654 Kbps
Maximum bit rate                 : 40.0 Mbps
Width                            : 1 280 pixels
Height                           : 720 pixels
Display aspect ratio             : 16:9
Frame rate                       : 23.976 fps
Color space                      : YUV
Chroma subsampling               : 4:2:0
Bit depth                        : 8 bits
Scan type                        : Progressive
Bits/(Pixel*Frame)               : 0.075
Stream size                      : 290 MiB (73%)
Title                            : Mobile Suit Gundam AGE - Episode 27: Seeing the Red Sunset
Writing library                  : x264 core 98 r1649 20cbe10
Encoding settings                : cabac=1 / ref=9 / deblock=1:1:1 / analyse=0x3:0x113 / me=umh / subme=9 / psy=1 / psy_rd=1.00:0.00 / mixed_ref=1 / me_range=24 / chroma_me=1 / trellis=1 / 8x8dct=1 / cqm=0 / deadzone=21,11 / fast_pskip=1 / chroma_qp_offset=-2 / threads=3 / sliced_threads=0 / slices=4 / nr=0 / decimate=1 / interlaced=0 / constrained_intra=0 / bframes=3 / b_pyramid=1 / b_adapt=1 / b_bias=0 / direct=1 / weightb=1 / weightp=0 / keyint=24 / keyint_min=2 / scenecut=40 / intra_refresh=0 / rc_lookahead=24 / rc=crf / mbtree=1 / crf=20.0 / qcomp=0.60 / qpmin=10 / qpmax=51 / qpstep=4 / vbv_maxrate=40000 / vbv_bufsize=30000 / crf_max=0.0 / ip_ratio=1.40 / aq=1:0.60 / nal_hrd=vbr
Language                         : Japanese
Color primaries                  : BT.709-5, BT.1361, IEC 61966-2-4, SMPTE RP177
Transfer characteristics         : BT.709-5, BT.1361
Matrix coefficients              : BT.709-5, BT.1361, IEC 61966-2-4 709, SMPTE RP177

Audio
ID                               : 2
Format                           : Vorbis
Format settings, Floor           : 1
Codec ID                         : A_VORBIS
Duration                         : 24mn 29s
Bit rate mode                    : Constant
Bit rate                         : 576 Kbps
Channel(s)                       : 6 channels
Sampling rate                    : 48.0 KHz
Compression mode                 : Lossy
Stream size                      : 101 MiB (25%)
Title                            : Japanese Audio
Writing library                  : libVorbis 20090709 (UTC 2009-07-09)
Language                         : Japanese

Text
ID                               : 3
Format                           : ASS
Codec ID                         : S_TEXT/ASS
Codec ID/Info                    : Advanced Sub Station Alpha
Compression mode                 : Lossless
Title                            : English Subtitles
Language                         : English

Menu
00:00:00.000                     : en:Introduction
00:00:50.133                     : en:Opening Theme
00:02:20.098                     : en:Part A
00:11:07.000                     : en:Part B
00:22:27.012                     : en:Ending Theme
00:23:56.977                     : en:Next Episode Preview
00:24:12.034                     : en:Gundampedia