[Exiled-Destiny]_A-Channel_Ep08_Subbed_(707AD8EC).mkv 707AD8EC 356423081bytes 2012-04-26@02:56.31
____________________________________________________________________________________________||||||||
for http://www.animeusenet.org and http://www.fanzub.com/ on alt.binaries.multimedia.anime.highspeed
			          )     *     (              )  
			   (   ( /(   (  `    )\ )        ( /(  
			   )\  )\())  )\))(  (()/(    (   )\()) 
			 (((_)((_)\  ((_)()\  /(_))   )\ ((_)\  
			 )\___  ((_) (_()((_)(_))_|_ ((_) _((_) 
			((/ __|/ _ \ |  \/  || |_ | | | || \| | 
			 | (__| (_) || |\/| || __|| |_| || .` | 
			  \___|\___/ |_|  |_||_|   \___/ |_|\_|
___________________________Powered bY Flexget, Transmission, Cksfv, Mediainfo, Yencee, Newsmangler !
-! Thanks the fansubs teams and nyaa, edwardK, minglong, bakabt, baka-updates, animsuki, tokyotosho!
-! More infos about the series and the teams available on http://anidb.net
-! Get NZB from http://www.fanzub.com/?q=&cat=anime if not available on http://www.animeusenet.org
-! To set up automatic downloading take a look at FlexGet, http://flexget.com/
-! If you want to chat, join us at irc://irc.irchighway.net/abmad,needkey  passkey: banter
-! Request group is alt.binaries.multimedia.anime.d
----------------------------------------------------------------------------------------------------
-! Mediainfo                     :
----------------------------------------------------------------------------------------------------
General
Unique ID                        : 250073238823239359140127180916568334370 (0xBC225A98CB5EB6F88B8982020E53A022)
Complete name                    : [Exiled-Destiny]_A-Channel_Ep08_Subbed_(707AD8EC).mkv
Format                           : Matroska
File size                        : 340 MiB
Duration                         : 25mn 28s
Overall bit rate                 : 1 866 Kbps
Encoded date                     : UTC 2012-04-03 17:08:43
Writing application              : mkvmerge v4.0.0 ('The Stars were mine') built on Jun  6 2010 16:18:42
Writing library                  : libebml v1.0.0 + libmatroska v1.0.0

Video
ID                               : 1
Format                           : AVC
Format/Info                      : Advanced Video Codec
Format profile                   : High@L3.0
Format settings, CABAC           : Yes
Format settings, ReFrames        : 6 frames
Codec ID                         : V_MPEG4/ISO/AVC
Duration                         : 25mn 28s
Bit rate                         : 1 605 Kbps
Nominal bit rate                 : 2 031 Kbps
Width                            : 720 pixels
Height                           : 480 pixels
Display aspect ratio             : 16:9
Original display aspect ratio    : 3:2
Frame rate                       : 29.970 fps
Standard                         : NTSC
Color space                      : YUV
Chroma subsampling               : 4:2:0
Bit depth                        : 8 bits
Scan type                        : Progressive
Bits/(Pixel*Frame)               : 0.155
Stream size                      : 292 MiB (86%)
Writing library                  : x264 core 120 r2164 da19765
Encoding settings                : cabac=1 / ref=6 / deblock=1:1:1 / analyse=0x3:0x133 / me=umh / subme=7 / psy=1 / psy_rd=0.40:0.00 / mixed_ref=1 / me_range=16 / chroma_me=1 / trellis=1 / 8x8dct=1 / cqm=2 / deadzone=21,11 / fast_pskip=1 / chroma_qp_offset=-2 / threads=3 / sliced_threads=0 / nr=0 / decimate=1 / interlaced=0 / bluray_compat=0 / constrained_intra=0 / bframes=5 / b_pyramid=0 / b_adapt=1 / b_bias=0 / direct=3 / weightb=1 / open_gop=0 / weightp=2 / keyint=300 / keyint_min=29 / scenecut=40 / intra_refresh=0 / rc_lookahead=40 / rc=2pass / mbtree=1 / bitrate=2031 / ratetol=1.0 / qcomp=0.60 / qpmin=10 / qpmax=51 / qpstep=4 / cplxblur=20.0 / qblur=0.5 / ip_ratio=1.40 / aq=1:0.60

Audio
ID                               : 2
Format                           : AC-3
Format/Info                      : Audio Coding 3
Mode extension                   : CM (complete main)
Codec ID                         : A_AC3
Duration                         : 25mn 28s
Bit rate mode                    : Constant
Bit rate                         : 224 Kbps
Channel(s)                       : 2 channels
Channel positions                : Front: L R
Sampling rate                    : 48.0 KHz
Bit depth                        : 16 bits
Compression mode                 : Lossy
Delay relative to video          : 30ms
Stream size                      : 40.8 MiB (12%)
Language                         : Japanese

Text #1
ID                               : 3
Format                           : UTF-8
Codec ID                         : S_TEXT/UTF8
Codec ID/Info                    : UTF-8 Plain Text
Language                         : Japanese

Text #2
ID                               : 4
Format                           : VobSub
Muxing mode                      : zlib
Codec ID                         : S_VOBSUB
Codec ID/Info                    : The same subtitle format used on DVDs
Language                         : Japanese

Menu
00:00:00.000                     : en:Chapter 1
00:01:22.600                     : en:Chapter 2
00:02:52.600                     : en:Chapter 3
00:12:02.000                     : en:Chapter 4
00:22:24.300                     : en:Chapter 5
00:23:54.300                     : en:Chapter 6
00:24:26.000                     : en:Chapter 7
00:25:26.000                     : en:Chapter 8