[Live-eviL]_Future_Boy_Conan_22_[BD-h264-720p]_[CD7290F7].mkv CD7290F7 249939740bytes 2012-04-27@04:08.59
____________________________________________________________________________________________||||||||
for http://www.animeusenet.org and http://www.fanzub.com/ on alt.binaries.multimedia.anime.highspeed
			          )     *     (              )  
			   (   ( /(   (  `    )\ )        ( /(  
			   )\  )\())  )\))(  (()/(    (   )\()) 
			 (((_)((_)\  ((_)()\  /(_))   )\ ((_)\  
			 )\___  ((_) (_()((_)(_))_|_ ((_) _((_) 
			((/ __|/ _ \ |  \/  || |_ | | | || \| | 
			 | (__| (_) || |\/| || __|| |_| || .` | 
			  \___|\___/ |_|  |_||_|   \___/ |_|\_|
___________________________Powered bY Flexget, Transmission, Cksfv, Mediainfo, Yencee, Newsmangler !
-! Thanks the fansubs teams and nyaa, edwardK, minglong, bakabt, baka-updates, animsuki, tokyotosho!
-! More infos about the series and the teams available on http://anidb.net
-! Get NZB from http://www.fanzub.com/?q=&cat=anime if not available on http://www.animeusenet.org
-! To set up automatic downloading take a look at FlexGet, http://flexget.com/
-! If you want to chat, join us at irc://irc.irchighway.net/abmad,needkey  passkey: banter
-! Request group is alt.binaries.multimedia.anime.d
----------------------------------------------------------------------------------------------------
-! Mediainfo                     :
----------------------------------------------------------------------------------------------------
General
Unique ID                        : 206462858984413860370033653977539785261 (0x9B534CDD53D0D490BE8297FC0D91B22D)
Complete name                    : [Live-eviL]_Future_Boy_Conan_22_[BD-h264-720p]_[CD7290F7].mkv
Format                           : Matroska
File size                        : 238 MiB
Duration                         : 28mn 57s
Overall bit rate                 : 1 151 Kbps
Encoded date                     : UTC 2012-04-26 23:07:38
Writing application              : mkvmerge v4.4.0 ('Die Wiederkehr') built on Oct 31 2010 21:52:48
Writing library                  : libebml v1.0.0 + libmatroska v1.0.0
Cover                            : Yes / Yes / Yes / Yes / Yes / Yes / Yes / Yes / Yes / Yes / Yes / Yes / Yes / Yes / Yes / Yes / Yes / Yes / Yes / Yes / Yes / Yes / Yes / Yes / Yes

Video
ID                               : 3
Format                           : AVC
Format/Info                      : Advanced Video Codec
Format profile                   : High@L4.1
Format settings, CABAC           : Yes
Format settings, ReFrames        : 4 frames
Muxing mode                      : Header stripping
Codec ID                         : V_MPEG4/ISO/AVC
Duration                         : 28mn 57s
Bit rate                         : 1 000 Kbps
Width                            : 960 pixels
Height                           : 720 pixels
Display aspect ratio             : 4:3
Frame rate                       : 23.976 fps
Color space                      : YUV
Chroma subsampling               : 4:2:0
Bit depth                        : 8 bits
Scan type                        : Progressive
Bits/(Pixel*Frame)               : 0.060
Stream size                      : 207 MiB (87%)
Writing library                  : x264 core 119 r2106 07efeb4
Encoding settings                : cabac=1 / ref=4 / deblock=1:-1:-1 / analyse=0x3:0x113 / me=umh / subme=7 / psy=1 / psy_rd=0.40:0.00 / mixed_ref=1 / me_range=16 / chroma_me=1 / trellis=2 / 8x8dct=1 / cqm=0 / deadzone=21,11 / fast_pskip=1 / chroma_qp_offset=-2 / threads=6 / sliced_threads=0 / nr=0 / decimate=1 / interlaced=0 / bluray_compat=0 / constrained_intra=0 / bframes=3 / b_pyramid=2 / b_adapt=2 / b_bias=0 / direct=3 / weightb=1 / open_gop=0 / weightp=2 / keyint=250 / keyint_min=23 / scenecut=40 / intra_refresh=0 / rc_lookahead=40 / rc=crf / mbtree=1 / crf=21.0 / qcomp=0.60 / qpmin=10 / qpmax=51 / qpstep=4 / vbv_maxrate=40000 / vbv_bufsize=40000 / crf_max=0.0 / nal_hrd=none / ip_ratio=1.40 / aq=1:0.60

Audio
ID                               : 1
Format                           : MPEG Audio
Format version                   : Version 1
Format profile                   : Layer 3
Mode                             : Joint stereo
Mode extension                   : MS Stereo
Muxing mode                      : Header stripping
Codec ID                         : A_MPEG/L3
Codec ID/Hint                    : MP3
Duration                         : 28mn 57s
Bit rate mode                    : Constant
Bit rate                         : 128 Kbps
Channel(s)                       : 2 channels
Sampling rate                    : 48.0 KHz
Compression mode                 : Lossy
Stream size                      : 26.5 MiB (11%)

Text
ID                               : 2
Format                           : ASS
Codec ID                         : S_TEXT/ASS
Codec ID/Info                    : Advanced Sub Station Alpha
Compression mode                 : Lossless