Het Snelle Geld S01E03 (VPRO)
Nederland 1 HD, 26-04-2012 22:15
Bron: Ziggo HD
Opgenomen met Humax 5050c

25 jaar Hollandse hebzucht

Het is 2012. In de afgelopen 25 jaar is ons land schatrijk geworden. En nu zitten we in een crisis die ons allen treft. Wat is er gebeurd? Deze vraag bracht Jort Kelder en de VPRO bij elkaar. In de achtdelige serie Het Snelle Geld, kijkt Jort Kelder als getuige-deskundige en betrokkene terug op een kwart eeuw van wilde kapitalistische jaren in Nederland.

Het verhaal wordt verteld aan de hand van persoonlijke getuigenissen en observaties van Jort Kelder en van hoofd- en bijfiguren, die beeldbepalend zijn voor de betreffende periode: Cees van der Hoeven, Nina Brink, Kees Storm, Jan Timmer, Aarnout Loudon, Herman Wijffels, Paul Meijer, Jan Kuitenbrouwer, Roel Pieper, Maurice de Hond, Peter-Paul de Vries, Sem van Berkel, Jan des Bouvrie, Mischa Wladimiroff, Kees Zegers, Tom de Swaan, Ton Jongbloed, Rutger Schimmelpenninck, Oscar Hammerstein, Joep van den Nieuwenhuijzen, Erik de Vlieger, Emile Ratelband, Joop Braakhekke, makelaar Swante Boot.

Een bont gezelschap dat spreekt over een bonte periode, die in beeld wordt gebracht met verrassende, hilarische maar in elk geval onvergetelijke televisiefragmenten en commercials.

Aan het begin van dit tijdvak is Jort nog een schuchtere rechtenstudent in Utrecht en raakt hij betoverd door de speelfilm Wall Street, waarin hoofdrolspeler Michael Douglas zegt: "Hebzucht is goed". Vijfentwintig jaar later, in 2012, dreigt een dubbele economische dip en is de nationale knuffel-kakker Jort Kelder BN'er geworden. Wat is er in de tussenliggende periode gebeurd? Wat waren de successen? Wat droegen we? Wat is een yup ook alweer? Hoe groot waren de horloges? Hoe zagen de interieurs er uit? Waar luisterden we naar? In welke auto móest je gezien worden? Wie waren er al succesvol aan het ondernemen toen Mark Zuckerberg van Facebook net uit de luiers kwam en Pim Fortuyn nog worstelde met de OV-jaarkaart?

Schandalen, affaires en deconfitures als World Online, Ahold, ABN Amro en de DSB bank komen uitgebreid aan bod. En uiteraard ook de vraag: wat betekende 25 jaar van steeds vrijer marktkapitalisme voor de gewone burger, kortom: voor U?       

http://programma.vpro.nl/hetsnellegeld/

MediaInfo:
General
Unique ID                      : 252054504815995483575137208116941415344 (0xBD9FEE8D58CD354EB4219E6F8B13E3B0)
Format                         : Matroska
Format version                 : Version 2
File size                      : 1.79 GiB
Duration                       : 40mn 0s
Overall bit rate               : 6 405 Kbps
Encoded date                   : UTC 2012-04-27 16:04:35
Writing application            : mkvmerge v3.3.0 ('Language') built on Mar 24 2010 14:59:24
Writing library                : libebml v0.8.0 + libmatroska v0.9.0

Video
ID                             : 1
Format                         : AVC
Format/Info                    : Advanced Video Codec
Format profile                 : High@L4.0
Format settings, CABAC         : Yes
Format settings, ReFrames      : 2 frames
Codec ID                       : V_MPEG4/ISO/AVC
Duration                       : 40mn 0s
Bit rate                       : 6 000 Kbps
Width                          : 1 920 pixels
Height                         : 1 080 pixels
Display aspect ratio           : 16:9
Frame rate                     : 25.000 fps
Color space                    : YUV
Chroma subsampling             : 4:2:0
Bit depth                      : 8 bits
Scan type                      : Progressive
Bits/(Pixel*Frame)             : 0.116
Stream size                    : 1.63 GiB (91%)
Writing library                : x264 core 120 r2120 0c7dab9
Encoding settings              : cabac=1 / ref=2 / deblock=1:0:0 / analyse=0x3:0x113 / me=hex / subme=2 / psy=1 / psy_rd=1.00:0.00 / mixed_ref=0 / me_range=16 / chroma_me=1 / trellis=0 / 8x8dct=1 / cqm=0 / deadzone=21,11 / fast_pskip=1 / chroma_qp_offset=0 / threads=3 / sliced_threads=0 / nr=0 / decimate=1 / interlaced=0 / bluray_compat=0 / constrained_intra=0 / bframes=1 / b_pyramid=0 / b_adapt=1 / b_bias=0 / direct=1 / weightb=1 / open_gop=0 / weightp=2 / keyint=250 / keyint_min=25 / scenecut=40 / intra_refresh=0 / rc_lookahead=10 / rc=abr / mbtree=1 / bitrate=6000 / ratetol=1.0 / qcomp=0.60 / qpmin=0 / qpmax=69 / qpstep=4 / ip_ratio=1.40 / aq=1:1.00
Default                        : Yes
Forced                         : No

Audio
ID                             : 2
Format                         : AC-3
Format/Info                    : Audio Coding 3
Mode extension                 : CM (complete main)
Codec ID                       : A_AC3
Duration                       : 40mn 0s
Bit rate mode                  : Constant
Bit rate                       : 448 Kbps
Channel(s)                     : 6 channels
Channel positions              : Front: L C R, Side: L R, LFE
Sampling rate                  : 48.0 KHz
Bit depth                      : 16 bits
Compression mode               : Lossy
Delay relative to video        : 200ms
Stream size                    : 128 MiB (7%)
Language                       : Dutch
Default                        : Yes
Forced                         : No