(AC)_Kero_Kero_Chime_Ep_05_[FD890673].avi FD890673 137099264bytes 2012-04-30@18:04.38
____________________________________________________________________________________________||||||||
for http://www.animeusenet.org and http://www.fanzub.com/ on alt.binaries.multimedia.anime.highspeed
			          )     *     (              )  
			   (   ( /(   (  `    )\ )        ( /(  
			   )\  )\())  )\))(  (()/(    (   )\()) 
			 (((_)((_)\  ((_)()\  /(_))   )\ ((_)\  
			 )\___  ((_) (_()((_)(_))_|_ ((_) _((_) 
			((/ __|/ _ \ |  \/  || |_ | | | || \| | 
			 | (__| (_) || |\/| || __|| |_| || .` | 
			  \___|\___/ |_|  |_||_|   \___/ |_|\_|
___________________________Powered bY Flexget, Transmission, Cksfv, Mediainfo, Yencee, Newsmangler !
-! Thanks the fansubs teams and nyaa, edwardK, minglong, bakabt, baka-updates, animsuki, tokyotosho!
-! More infos about the series and the teams available on http://anidb.net
-! Get NZB from http://www.fanzub.com/?q=&cat=anime if not available on http://www.animeusenet.org
-! To set up automatic downloading take a look at FlexGet, http://flexget.com/
-! If you want to chat, join us at irc://irc.irchighway.net/abmad,needkey  passkey: banter
-! Request group is alt.binaries.multimedia.anime.d
----------------------------------------------------------------------------------------------------
-! Mediainfo                     :
----------------------------------------------------------------------------------------------------
General
Complete name                    : (AC)_Kero_Kero_Chime_Ep_05_[FD890673].avi
Format                           : AVI
Format/Info                      : Audio Video Interleave
File size                        : 131 MiB
Duration                         : 23mn 4s
Overall bit rate                 : 792 Kbps
Writing application              : Nandub v1.0rc2
Writing library                  : Nandub build 1853/release

Video
ID                               : 0
Format                           : MPEG-4 Visual
Codec ID                         : DIV3
Codec ID/Hint                    : DivX 3 Low
Duration                         : 23mn 3s
Bit rate                         : 720 Kbps
Width                            : 480 pixels
Height                           : 360 pixels
Display aspect ratio             : 4:3
Frame rate                       : 23.976 fps
Color space                      : YUV
Chroma subsampling               : 4:2:0
Bit depth                        : 8 bits
Compression mode                 : Lossy
Bits/(Pixel*Frame)               : 0.174
Stream size                      : 119 MiB (91%)

Audio
ID                               : 1
Format                           : WMA
Format version                   : Version 2
Codec ID                         : 161
Codec ID/Info                    : Windows Media Audio
Duration                         : 23mn 4s
Bit rate                         : 64.1 Kbps
Channel(s)                       : 2 channels
Sampling rate                    : 44.1 KHz
Bit depth                        : 16 bits
Stream size                      : 10.6 MiB (8%)
Interleave, duration             : 46 ms (1.11 video frame)
Interleave, preload duration     : 464 ms