Das Wunder von Merching






TV-Heimatdrama, Deutschland 2012
Regie: Thomas Kronthaler
Autor: Dominique Lorenz
Musik: Martin Unterberger
Kamera: Christof Oefelein





Unter Mⁿhen bewirtschaftet die junge FenzlbΣuerin Kathi den vΣterlichen Hof im abgelegenen bayerischen Merching. Die Zeiten sind hart, denn Touristen verirren sich nur noch selten in den einstigen Fremdenverkehrsort. Und nun muss Kathi erfahren, dass der hinterhΣltige Fritz Krontaler, Bⁿrgermeister des Nachbarortes Mirning, ihr verschuldetes Dorf eingemeinden will. Bei Kathi schrillen alle Alarmglocken, denn der Pfarrer, der ihrem gebrechlichen Vater Quirin seit Jahrzehnten die Beichte abnimmt, wⁿrde damit ebenso wegrationalisiert wie ihr dringend ben÷tigter Nebenjob als GemeindesekretΣrin im Bⁿrgerbⁿro. Da die Merchinger, allen voran der trΣge Ortsvorsteher Willi Schubert, ihre HΣnde in den Scho▀ legen, betet Kathi in der kleinen Feldkapelle des Fenzlhofes um ein Wunder. Ein Regentropfen, der in diesem Moment durch das undichte Kirchendach fΣllt, erweckt den Eindruck, als wⁿrde die h÷lzerne Marienstatue eine TrΣne vergie▀en. Kathi deutet dieses Zeichen des Himmels auf ihre Weise und inszeniert mithilfe ihres geschickten Sohnes Leonard das Wunder von Merching. Die sensationelle Nachricht verbreitet sich wie ein Lauffeuer, ganze Busladungen voller Pilger wollen die 'weinende Madonna' sehen. Krontaler schΣumt vor Wut und bittet die Kommission des Ordinariats um eine ▄berprⁿfung des vermeintlichen Wunders.





Jule Ronstedt ("Kathi Fenzl") - Fred Stillkrauth ("Quirin Fenzl") - Klaus Steinbacher ("Leonard Fenzl") - Michael A. Grimm ("Willi Schubert") - Stephan Zinner ("Fritz Krontaler") - Torben Liebrecht ("Hannes Wenisch") - Robert Giggenbach ("Pfarrer Sonnholzner")
Dauer ~90 min.



General
Complete name                    : F:\Das Wunder von Merching\Das Wunder von Merching.divx
Format                           : DivX
Format/Info                      : Hack of AVI
File size                        : 1.01 GiB
Duration                         : 1h 27mn
Overall bit rate                 : 1 658 Kbps

Video
ID                               : 0
Format                           : MPEG-4 Visual
Format settings, BVOP            : 1
Format settings, QPel            : No
Format settings, GMC             : No warppoints
Format settings, Matrix          : Default (H.263)
Muxing mode                      : Packed bitstream
Codec ID                         : DX50
Codec ID/Hint                    : DivX 5
Duration                         : 1h 27mn
Bit rate                         : 1 201 Kbps
Width                            : 720 pixels
Height                           : 576 pixels
Display aspect ratio             : 16:9
Frame rate                       : 25.000 fps
Standard                         : PAL
Color space                      : YUV
Chroma subsampling               : 4:2:0
Bit depth                        : 8 bits
Scan type                        : Progressive
Compression mode                 : Lossy
Bits/(Pixel*Frame)               : 0.116
Stream size                      : 752 MiB (72%)
Title                            : Video
Writing library                  : DivX 6.6.1.4

Audio
ID                               : 1
Format                           : AC-3
Format/Info                      : Audio Coding 3
Mode extension                   : CM (complete main)
Codec ID                         : 2000
Duration                         : 1h 27mn
Bit rate mode                    : Constant
Bit rate                         : 448 Kbps
Channel(s)                       : 6 channels
Channel positions                : Front: L C R, Side: L R, LFE
Sampling rate                    : 48.0 KHz
Bit depth                        : 16 bits
Compression mode                 : Lossy
Stream size                      : 281 MiB (27%)
Alignment                        : Split accross interleaves
Interleave, duration             : 40 ms (1.00 video frame)
Interleave, preload duration     : 500 ms
Title                            : Audio