Touch and Go





TV-Drama, England 1998
Regie: Tim Fywell
Autor: Martin Allen



Nick und Alison sind nach au▀en hin ein junges, glⁿckliches und erfolgreiches Ehepaar, doch die Unzufriedenheit mit ihrem Sexleben, setzt der Beziehung zu.





Martin Clunes ("Nick Wood") - Zara Turner ("Alison Wood") - Teresa Banham ("Laura Aldridge") - Ewan Stewart ("Rob Aldridge") - Nadia Cameron ("Blakey") - Ian Mc Elhinney ("Clive Bevan") - Paul Jerrico ("Maurice Hirschler") - Shaun McGowan ("Gerry") - Gillian Perry ("Zoδ") - Tony Nyland ("Tony") - Carl Cieka ("Ken") - Ian Gain ("Dave") - Susan Gott ("Hotel Receptionist") - Douglas Mcferran ("Andy")


Dauer ~95 min.



General
Complete name                    : F:\Touch and Go\Touch and Go.avi
Format                           : AVI
Format/Info                      : Audio Video Interleave
File size                        : 934 MiB
Duration                         : 1h 33mn
Overall bit rate                 : 1 401 Kbps

Video
ID                               : 0
Format                           : MPEG-4 Visual
Format profile                   : Advanced Simple@L5
Format settings, BVOP            : 2
Format settings, QPel            : No
Format settings, GMC             : No warppoints
Format settings, Matrix          : Default (H.263)
Muxing mode                      : Packed bitstream
Codec ID                         : XVID
Codec ID/Hint                    : XviD
Duration                         : 1h 33mn
Bit rate                         : 1 199 Kbps
Width                            : 720 pixels
Height                           : 400 pixels
Display aspect ratio             : 16:9
Frame rate                       : 25.000 fps
Color space                      : YUV
Chroma subsampling               : 4:2:0
Bit depth                        : 8 bits
Scan type                        : Progressive
Compression mode                 : Lossy
Bits/(Pixel*Frame)               : 0.167
Stream size                      : 800 MiB (86%)
Writing library                  : XviD 64

Audio
ID                               : 1
Format                           : MPEG Audio
Format version                   : Version 1
Format profile                   : Layer 3
Codec ID                         : 55
Codec ID/Hint                    : MP3
Duration                         : 1h 33mn
Bit rate mode                    : Constant
Bit rate                         : 192 Kbps
Channel(s)                       : 2 channels
Sampling rate                    : 48.0 KHz
Compression mode                 : Lossy
Stream size                      : 128 MiB (14%)
Alignment                        : Split accross interleaves
Interleave, duration             : 41 ms (1.02 video frame)