http://www.iafd.com/title.rme/title=American+Blonde/year=1994/american-blonde.htm

General
Format                           : CDXA/MPEG-PS
File size                        : 724 MiB
Duration                         : 1h 11mn
Overall bit rate                 : 1 412 Kbps

Video
ID                               : 224 (0xE0)
Format                           : MPEG Video
Format version                   : Version 1
Format settings, BVOP            : Yes
Format settings, Matrix          : Default
Duration                         : 1h 11mn
Bit rate                         : 1 123 Kbps
Maximum bit rate                 : 1 152 Kbps
Width                            : 352 pixels
Height                           : 240 pixels
Display aspect ratio             : 1.564
Frame rate                       : 29.970 fps
Standard                         : NTSC
Color space                      : YUV
Bit depth                        : 8 bits
Scan type                        : Progressive
Compression mode                 : Lossy
Bits/(Pixel*Frame)               : 0.444
Stream size                      : 576 MiB (80%)

Audio
ID                               : 192 (0xC0)
Format                           : MPEG Audio
Format version                   : Version 1
Format profile                   : Layer 2
Mode                             : Joint stereo
Mode extension                   : Intensity Stereo + MS Stereo
Duration                         : 1h 11mn
Bit rate mode                    : Constant
Bit rate                         : 224 Kbps
Channel(s)                       : 2 channels
Sampling rate                    : 44.1 KHz
Compression mode                 : Lossy
Stream size                      : 115 MiB (16%)